Torrent

Y a-t-il un pilote dans l'avion ? (Airplane) 1980 FRENCH 720p BluRay x264 MUxHD URL Raccourcie


.:: Release ::.

Airplane.1980.FRENCH.720p.BluRay.x264-MUxHD


( ¯`·._.·[ Y a-t-il un pilote dans l'avion ? ]·._.·´¯ )





Acteur(s) : Robert Hays, Julie Hagerty, Lloyd Bridges, Leslie Nielsen, Peter Graves
Réalisateur(s) :
Editeur : Paramount Pictures
Genre : Comédie
Date de sortie du HD Blue-Ray : 4 décembre 2013
Durée : 1h28min
Date de production : 1980



Le vol 209, à destination de Chicago n'est pas vraiment un vol ordinaire. Tous les membres de l'équipage étant victimes d'un empoisonnement alimentaire, il faut vite trouver un pilote de dépannage parmi les passagers. Elaine supplie son ex-ami, un ancien pilote de chasse de prendre les commandes de l'avion.



Hébergeur : Seedbox
Qualité : Blu-Ray 720p
Format : x264
Langue : AC3 @ 224 Kbps
Sous-titre : Aucun
Découper avec : Aucun
Taille du fichier : 3.27 Go



LIENS DE TÉLÉCHARGEMENT

Télécharger Y a-t-il un pilote dans l'avion ? (Airplane) 1980 FRENCH 720p BluRay x264 MUxHD URL Raccourcie gratuitement

Cliquez ici pour télécharger la version FRANCAISE



TÉLÉCHARGER Y a-t-il un pilote dans l'avion ? (Airplane) 1980 FRENCH 720p BluRay x264 MUxHD AVEC USENET (ANONYME&RAPIDE) 14 jours gratuits

↓↓↓ Y a-t-il un pilote dans l'avion ? (Airplane) 1980 FRENCH 720p BluRay x264 MUxHD ↓↓↓
 
Seeders 2 Leechers 3 Téléchargements 159
 
Télécharger Dire merci! Signaler
Voir la liste des membres qui vous remercient
↑↑↑ Y a-t-il un pilote dans l'avion ? (Airplane) 1980 FRENCH 720p BluRay x264 MUxHD ↑↑↑

Informations

Nom Y a-t-il un pilote dans l'avion ? (Airplane) 1980 FRENCH 720p BluRay x264 MUxHD
Torrent Airplane.1980.FRENCH.720p.BluRay.x264-MUxHD.torrent
Catégorie Film
Taille totale 3.31 GB
Info Hash 62f281c7d36d01639396bf457d6462a3c3992965
Uploadé par Anonymous
Uploadé le 2014-07-31 00:07:31 (+00:00)
Visites 685
évaluation 4.9/5 (14 votes)

Liste des Fichiers

Path Size
Airplane.1980.FRENCH.720p.BluRay.x264-MUxHD/Proof/muxhd-airplane720-proof.jpg 1.87 MB
Airplane.1980.FRENCH.720p.BluRay.x264-MUxHD/Sample/muxhd-airplane720-sample.mkv 41.63 MB
Airplane.1980.FRENCH.720p.BluRay.x264-MUxHD/muxhd-airplane720.mkv 3.27 GB
Airplane.1980.FRENCH.720p.BluRay.x264-MUxHD/muxhd-airplane720.nfo 1.08 KB

Voir le NFO

General
Complete name                            : Airplane.1980.FRENCH.720p.BluRay.x264-MUxHD/muxhd-airplane720.mkv
Format                                   : Matroska
Format version                           : Version 2
File size                                : 3.27 GiB
Duration                                 : 1h 27mn
Overall bit rate                         : 5 338 Kbps
Encoded date                             : UTC 2014-07-25 23:23:40
Writing application                      : mkvmerge v7.0.0 ('Where We Going') 32bit built on Jun  9 2014 15:08:34
Writing library                          : libebml v1.3.0 + libmatroska v1.4.1
DURATION                                 : 01:22:07.255000000
NUMBER_OF_FRAMES                         : 27
NUMBER_OF_BYTES                          : 844
_STATISTICS_WRITING_APP                  : mkvmerge v7.0.0 ('Where We Going') 32bit built on Jun  9 2014 15:08:34
_STATISTICS_WRITING_DATE_UTC             : 2014-07-25 23:23:40
_STATISTICS_TAGS                         : BPS DURATION NUMBER_OF_FRAMES NUMBER_OF_BYTES

Video
ID                                       : 1
Format                                   : AVC
Format/Info                              : Advanced Video Codec
Format profile                           : [email protected]
Format settings, CABAC                   : Yes
Format settings, ReFrames                : 5 frames
Codec ID                                 : V_MPEG4/ISO/AVC
Duration                                 : 1h 27mn
Bit rate                                 : 5 112 Kbps
Width                                    : 1 280 pixels
Height                                   : 720 pixels
Display aspect ratio                     : 16:9
Frame rate                               : 23.976 fps
Color space                              : YUV
Chroma subsampling                       : 4:2:0
Bit depth                                : 8 bits
Scan type                                : Progressive
Bits/(Pixel*Frame)                       : 0.231
Stream size                              : 3.07 GiB (94%)
Writing library                          : x264 core 142 r2453 ea0ca51
Encoding settings                        : cabac=1 / ref=5 / deblock=1:0:0 / analyse=0x3:0x133 / me=umh / subme=7 / psy=1 / psy_rd=1.00:0.00 / mixed_ref=1 / me_range=16 / chroma_me=1 / trellis=1 / 8x8dct=1 / cqm=0 / deadzone=21,11 / fast_pskip=0 / chroma_qp_offset=-2 / threads=12 / lookahead_threads=2 / sliced_threads=0 / nr=0 / decimate=1 / interlaced=0 / bluray_compat=0 / constrained_intra=0 / bframes=3 / b_pyramid=2 / b_adapt=2 / b_bias=0 / direct=3 / weightb=1 / open_gop=0 / weightp=2 / keyint=240 / keyint_min=23 / scenecut=40 / intra_refresh=0 / rc_lookahead=50 / rc=2pass / mbtree=1 / bitrate=5112 / ratetol=1.0 / qcomp=0.60 / qpmin=0 / qpmax=69 / qpstep=4 / cplxblur=20.0 / qblur=0.5 / ip_ratio=1.40 / aq=1:1.00
Language                                 : English
Default                                  : Yes
Forced                                   : No
DURATION                                 : 01:27:42.049000000
NUMBER_OF_FRAMES                         : 126163
NUMBER_OF_BYTES                          : 3362580623
_STATISTICS_WRITING_APP                  : mkvmerge v7.0.0 ('Where We Going') 32bit built on Jun  9 2014 15:08:34
_STATISTICS_WRITING_DATE_UTC             : 2014-07-25 23:23:40
_STATISTICS_TAGS                         : BPS DURATION NUMBER_OF_FRAMES NUMBER_OF_BYTES

Audio
ID                                       : 2
Format                                   : AC-3
Format/Info                              : Audio Coding 3
Mode extension                           : CM (complete main)
Format settings, Endianness              : Big
Codec ID                                 : A_AC3
Duration                                 : 1h 27mn
Bit rate mode                            : Constant
Bit rate                                 : 224 Kbps
Channel(s)                               : 2 channels
Channel positions                        : Front: L R
Sampling rate                            : 48.0 KHz
Bit depth                                : 16 bits
Compression mode                         : Lossy
Stream size                              : 141 MiB (4%)
Language                                 : French
Default                                  : Yes
Forced                                   : No

Text
ID                                       : 3
Format                                   : UTF-8
Codec ID                                 : S_TEXT/UTF8
Codec ID/Info                            : UTF-8 Plain Text
Title                                    : Forced
Language                                 : French
Default                                  : Yes
Forced                                   : No

Ajouter un commentaire

albator7512 ↑ 524.32 GB ↓ 517.23 GB Ratio: 1,01

Je suis bloqué à 99,8%

orkathewolf ↑ 905.08 GB ↓ 437.35 GB Ratio: 2,06

La qualité est bonne, vous pouvez le prendre les yeux fermés ! Ce film me fait toujours autant rire, merci

Dernière édition par orkathewolf le 2014-08-01 09:32:40

 
Loading...