Torrent

X-Men Apocalypse (2016) +BONUS MULTi [1080p] BluRay x264-PopHD (Marvel) URL Raccourcie




Multi (VFI-VO) - HD Light 1080p







Origine : U.S.A.
Réalisateur : Bryan Singer
Acteurs : James McAvoy, Michael Fassbender, Jennifer Lawrence, Oscar Isaac, Sophie Turner
Genre : Action, Science fiction, Fantastique
Durée : 2h 24min
Date de sortie : 18 Mai 2016
Année de production : 2016
Titre original : X-Men: Apocalypse
Critiques Spectateurs : 3.9
Critiques Presses : 2.6
IMDb : 7.2
Plus d'information sur AlloCiné ou IMDb :







Depuis les origines de la civilisation, Apocalypse, le tout premier mutant, a absorbé de nombreux pouvoirs, devenant à la fois immortel et invincible, adoré comme un dieu. Se réveillant après un sommeil de plusieurs milliers d'années et désillusionné par le monde qu'il découvre, il réunit de puissants mutants dont Magneto pour nettoyer l'humanité et régner sur un nouvel ordre. Raven et Professeur X vont joindre leurs forces pour affronter leur plus dangereux ennemi et sauver l'humanité d'une destruction totale.


Bande annonce :




Ce up peut paraître léger pour un 1080p mais les options d'encodage du x264 permettent d'obtenir une qualité qui se rapproche des versions lourdes, tout en préservant votre ratio !



                           • Format :      MKV (AVC H.264 @2 550 Kbps - [email protected])

                           • Audio :        Français (VFI) : AC3 5.1 @448 kbps
                                            Anglais        : AC3 5.1 @448 kbps

                           • Sous-titres : Français [forcés, complets & commentaires réal.]
                                            Anglais  [forcés & complets]


                           • Résolution : 1920x800         |    Format à l'écran :2.40

                           • Taille du fichier : 3.48 Go    |    Encodé parTonyka



                                           

                           • Format :      MKV (AVC H.264 @2 350 Kbps - [email protected])

                           • DURÉE: 1h04min.

                           • Audio :        Anglais : AC3 2.0 @224 kbps

                           • Sous-titres : Français [complets]

                           • Résolution : 1920x1080       |    Format à l'écran :16.9

                           • Taille du bonus : 1.15 Go  |


                                                            • Taille du post :    4.63 Go                      |    Encodé parTonyka


Retrouvez toutes nos releases MARVEL
ICI



popopoooooo, Abi, LotusFlower, Tonyka, itamma, Noex







Pour les BluRay FULL, REMUX ou HD régulier allez voir ICI

LIENS DE TÉLÉCHARGEMENT

Télécharger X-Men Apocalypse (2016) +BONUS MULTi [1080p] BluRay x264-PopHD (Marvel) URL Raccourcie gratuitement

Cliquez ici pour télécharger la version FRANCAISE
PUB



TÉLÉCHARGER X-Men Apocalypse (2016) +BONUS MULTi [1080p] BluRay x264-PopHD (Marvel) AVEC USENET (ANONYME&RAPIDE) 14 jours gratuits

PUB

↓↓↓ X-Men Apocalypse (2016) +BONUS MULTi [1080p] BluRay x264-PopHD (Marvel) ↓↓↓
 
Seeders 1719 Leechers 141 Téléchargements 23175
 
Télécharger Dire merci! Signaler
Voir la liste des membres qui vous remercient
↑↑↑ X-Men Apocalypse (2016) +BONUS MULTi [1080p] BluRay x264-PopHD (Marvel) ↑↑↑

Informations

Nom X-Men Apocalypse (2016) +BONUS MULTi [1080p] BluRay x264-PopHD (Marvel)
Torrent X-Men Apocalypse (2016) MULTi [1080p] BluRay x264-PopHD.torrent
Catégorie Film
Taille totale 4.64 GB
Info Hash 93a98316dd6d78c6805f825589d698725915a14d
Uploadé par popopoooooo
Uploadé le 2016-09-18 22:00:03 (+00:00)
Visites 41804
évaluation 4.9/5 (401 votes)

Liste des Fichiers

Path Size
X-Men Apocalypse (2016) MULTi [1080p] BluRay x264-PopHD/X-Men Apocalypse (2016) MULTi [1080p] BluRay x264-PopHD.mkv 3.48 GB
X-Men Apocalypse (2016) MULTi [1080p] BluRay x264-PopHD/X-Men Apocalypse Bonus Features PopHD.mkv 1.15 GB
X-Men Apocalypse (2016) MULTi [1080p] BluRay x264-PopHD/folder.jpg 95.15 KB

Voir le NFO

------------------------------------------------------------------------
--------------------     Team PopHD present     --------------------
------------------------------------------------------------------------

----------------------------- GENERAL -------------------------------


        X-Men Apocalypse (2016) MULTi [1080p] BluRay x264-PopHD.mkv

Format                                   : Matroska
Format version                           : Version 4 / Version 2
File size                                : 3.48 GiB
Duration                                 : 2 h 23 min
Overall bit rate                         : 3 466 kb/s
Movie name                               : X-Men: Apocalypse (2016) PopHD
Encoded date                             : UTC 2016-09-10 12:05:33
Writing application                      : mkvmerge v8.2.0 ('World of Adventure') 64bit
Writing library                          : libebml v1.3.1 + libmatroska v1.4.2
Attachments                              : x_men_apocalypse_logo.jpg

Video
ID                                       : 1
Format                                   : AVC
Format/Info                              : Advanced Video Codec
Format profile                           : [email protected]
Format settings, CABAC                   : Yes
Format settings, ReFrames                : 5 frames
Codec ID                                 : V_MPEG4/ISO/AVC
Duration                                 : 2 h 23 min
Bit rate                                 : 2 550 kb/s
Width                                    : 1 920 pixels
Height                                   : 800 pixels
Display aspect ratio                     : 2.40:1
Frame rate mode                          : Constant
Frame rate                               : 23.976 (24000/1001) FPS
Color space                              : YUV
Chroma subsampling                       : 4:2:0
Bit depth                                : 8 bits
Scan type                                : Progressive
Bits/(Pixel*Frame)                       : 0.069
Stream size                              : 2.56 GiB (74%)
Title                                    : X-Men: Apocalypse (2016) PopHD
Writing library                          : x264 core 142 r2389 956c8d8

Audio #1
ID                                       : 2
Format                                   : AC-3
Format/Info                              : Audio Coding 3
Mode extension                           : CM (complete main)
Format settings, Endianness              : Big
Codec ID                                 : A_AC3
Duration                                 : 2 h 23 min
Bit rate mode                            : Constant
Bit rate                                 : 448 kb/s
Channel(s)                               : 6 channels
Channel positions                        : Front: L C R, Side: L R, LFE
Sampling rate                            : 48.0 kHz
Frame rate                               : 31.250 FPS (1536 spf)
Compression mode                         : Lossy
Stream size                              : 461 MiB (13%)
Title                                    : AC3-5.1-VFI
Language                                 : French
Default                                  : Yes
Forced                                   : No

Audio #2
ID                                       : 3
Format                                   : AC-3
Format/Info                              : Audio Coding 3
Mode extension                           : CM (complete main)
Format settings, Endianness              : Big
Codec ID                                 : A_AC3
Duration                                 : 2 h 23 min
Bit rate mode                            : Constant
Bit rate                                 : 448 kb/s
Channel(s)                               : 6 channels
Channel positions                        : Front: L C R, Side: L R, LFE
Sampling rate                            : 48.0 kHz
Frame rate                               : 31.250 FPS (1536 spf)
Compression mode                         : Lossy
Stream size                              : 461 MiB (13%)
Title                                    : AC3-5.1-VO
Language                                 : English
Default                                  : No
Forced                                   : No

Text #1
ID                                       : 4
Format                                   : UTF-8
Codec ID                                 : S_TEXT/UTF8
Codec ID/Info                            : UTF-8 Plain Text
Duration                                 : 2 h 22 min
Bit rate                                 : 6 b/s
Count of elements                        : 104
Stream size                              : 6.88 KiB (0%)
Title                                    : forced colored
Language                                 : French
Default                                  : Yes
Forced                                   : No

Text #2
ID                                       : 5
Format                                   : UTF-8
Codec ID                                 : S_TEXT/UTF8
Codec ID/Info                            : UTF-8 Plain Text
Duration                                 : 2 h 22 min
Bit rate                                 : 2 b/s
Count of elements                        : 104
Stream size                              : 2.41 KiB (0%)
Title                                    : forced
Language                                 : French
Default                                  : No
Forced                                   : No

Text #3
ID                                       : 6
Format                                   : UTF-8
Codec ID                                 : S_TEXT/UTF8
Codec ID/Info                            : UTF-8 Plain Text
Duration                                 : 2 h 22 min
Bit rate                                 : 30 b/s
Count of elements                        : 1307
Stream size                              : 32.2 KiB (0%)
Title                                    : full
Language                                 : French
Default                                  : No
Forced                                   : No

Text #4
ID                                       : 7
Format                                   : UTF-8
Codec ID                                 : S_TEXT/UTF8
Codec ID/Info                            : UTF-8 Plain Text
Duration                                 : 2 h 20 min
Bit rate                                 : 1 b/s
Count of elements                        : 99
Stream size                              : 2.05 KiB (0%)
Title                                    : forced
Language                                 : English
Default                                  : No
Forced                                   : No

Text #5
ID                                       : 8
Format                                   : UTF-8
Codec ID                                 : S_TEXT/UTF8
Codec ID/Info                            : UTF-8 Plain Text
Duration                                 : 2 h 22 min
Bit rate                                 : 37 b/s
Count of elements                        : 1460
Stream size                              : 38.7 KiB (0%)
Title                                    : full
Language                                 : English
Default                                  : No
Forced                                   : No

Text #6
ID                                       : 9
Format                                   : PGS
Muxing mode                              : zlib
Codec ID                                 : S_HDMV/PGS
Codec ID/Info                            : Picture based subtitle format used on BDs/HD-DVDs
Duration                                 : 2 h 23 min
Bit rate                                 : 17.5 kb/s
Count of elements                        : 4781
Stream size                              : 18.0 MiB (1%)
Title                                    : Commentaires Real.
Language                                 : French
Default                                  : No
Forced                                   : No

Menu
00:00:00.000                             : :Chapter 1
00:08:18.915                             : :Chapter 2
00:14:13.310                             : :Chapter 3
00:18:07.169                             : :Chapter 4
00:24:55.577                             : :Chapter 5
00:30:45.468                             : :Chapter 6
00:36:35.359                             : :Chapter 7
00:41:00.207                             : :Chapter 8
00:45:56.628                             : :Chapter 9
00:49:24.419                             : :Chapter 10
00:55:22.736                             : :Chapter 11
00:59:37.031                             : :Chapter 12
01:04:43.880                             : :Chapter 13
01:12:35.976                             : :Chapter 14
01:17:33.106                             : :Chapter 15
01:22:18.642                             : :Chapter 16
01:27:45.718                             : :Chapter 17
01:34:05.932                             : :Chapter 18
01:36:46.842                             : :Chapter 19
01:39:51.026                             : :Chapter 20
01:43:34.500                             : :Chapter 21
01:49:57.632                             : :Chapter 22
01:55:08.485                             : :Chapter 23
01:57:21.784                             : :Chapter 24
02:03:50.756                             : :Chapter 25
02:07:56.835                             : :Chapter 26
02:10:59.309                             : :Chapter 27
02:12:54.299                             : :Chapter 28

------------------------------- SOURCES --------------------------------

X-Men Apocalypse 2016 COMPLETE BluRay-TRUEDEF

Encode par Tonyka                                        Enjoy !! 

Ajouter un commentaire

rastajah ↑ 352.2 GB ↓ 239.84 GB Ratio: 1,46

abusez y a hadopi par tout maintenant sur tous les marvel

djobinou ↑ 19.06 GB ↓ 18.82 GB Ratio: 1,01

X......TRA !!!

rodrigoverachi ↑ 1011.81 GB ↓ 926.97 GB Ratio: 1,09

coucou je dois utiliser un vpn lors du telechargement du tracker ou pendant tout le telechargement du film ?

rodrigoverachi ↑ 1011.81 GB ↓ 926.97 GB Ratio: 1,09

coucou je dois utiliser un vpn lors du telechargement du tracker ou pendant tout le telechargement du film ?

cramer51 ↑ 28.62 GB ↓ 28.65 GB Ratio: 0,99

Bonjour, Merci pour ce que vous faite. Bien cordialement

MrSelecty ↑ 193.66 GB ↓ 148.54 GB Ratio: 1,30

Bonjour, pour vous prévenir, le fichier est surveillé par HADOPI.
Je viens de recevoir mon premier mail

Dernière édition par MrSelecty le 2017-02-03 09:28:36

ceramique22

Merci beaucoup pour ce partage,e film il le laisse regarder agréablement

louwiwi ↑ 809.23 GB ↓ 803.25 GB Ratio: 1,00

se fichier semble surveillé par hadopi !

louwiwi ↑ 809.23 GB ↓ 803.25 GB Ratio: 1,00

se fichier semble surveillé par hadopi !

rafid59nord ↑ 30.38 GB ↓ 32.2 GB Ratio: 0,94

Merci beaucoup pour le partage

EvrNiko44 ↑ 215.15 GB ↓ 168.79 GB Ratio: 1,27

Clemset Normal il ya beaucoup trop de seeders et pas assez de leechers

Clemset ↑ 13.82 GB ↓ 15.89 GB Ratio: 0,86

Bonjour, d'abord merci pour le film il le laisse regarder agréablement.

Sinon petit question est-ce normale que mon partage soit toujours à zero ? (je n'ai rien supprimé ou déplacé.) je n'ai pas trouvé de topic sur ça dans le forum non plus.

dzarchi ↑ 199.53 GB ↓ 30.74 GB Ratio: 6,49

merci

teriiehutane ↑ 166.07 GB ↓ 148.92 GB Ratio: 1,11

Merci beaucoup pour ce partage en cette période de free leech!
Et surtout merci beacoups à la team qui oeuvre régulièrement pour entretenir ce lien de partage!

colikeal ↑ 75.01 GB ↓ 39.12 GB Ratio: 1,91

Merci je pourrais augmenter mon ratio comme cela
Et ce torrent est surveiller par hadopi
moi personelement je m'en fou je suis belge

Arcange ↑ 168.22 GB ↓ 101.81 GB Ratio: 1,65

Merci bcp pour ce partage

arx2009

alfvdb : pour ta gouverne, SAISINE c'est un mot juridique...Donc pas une faute.

labichelh ↑ 3.44 TB ↓ 243.75 GB Ratio: 14,43

rien à péter D'hadopi j'ai déjà reçu des mails même une recommandé, et alors je continue.

BANDIDOS04 ↑ 2.4 TB ↓ 954.04 GB Ratio: 2,57

Merci pour le partage

mimititine ↑ 36.67 GB ↓ 34.01 GB Ratio: 1,07

Merci !!!
Trés bien !!!

 
Loading...