Torrent

Une folle envie (2011) URL Raccourcie




Synopsis:
Yann et Rose sont jeunes, ils s’aiment et veulent avoir un enfant. Neuf mois plus tard… toujours aucun bébé à l’horizon. Ils font alors preuve de beaucoup d’imagination et essayent tout…et n’importe quoi. Enfin surtout n’importe quoi. Seulement voilà, à tellement vouloir être trois, est-ce qu’ils ne risquent pas de finir tous seuls ?

Durée
1h 20min
Date de sortie
18 mai 2011
Année de production
2010
Langue
Français

LIENS DE TÉLÉCHARGEMENT

Télécharger Une folle envie (2011) URL Raccourcie gratuitement

Cliquez ici pour télécharger la version FRANCAISE



TÉLÉCHARGER Une folle envie (2011) AVEC USENET (ANONYME&RAPIDE) 14 jours gratuits

↓↓↓ Une folle envie (2011) ↓↓↓
 
Seeders 0 Leechers 3 Téléchargements 569
 
Télécharger Dire merci! Signaler
Voir la liste des membres qui vous remercient
↑↑↑ Une folle envie (2011) ↑↑↑

Informations

Nom Une folle envie (2011)
Torrent Une folle envie (2011) [Fr][].mkv.torrent
Catégorie Film
Taille totale 695.44 MB
Info Hash d5b77b27035b2f443cd6e92062b0b4021a333e24
Uploadé par woodytii
Uploadé le 2013-09-09 00:02:28 (+00:00)
Visites 1057
évaluation 3.8/5 (12 votes)

Liste des Fichiers

Path Size
Une folle envie (2011) [Fr][].mkv 695.44 MB

Voir le NFO

 ■General

Unique ID                                : 195362337008869397597046521137193615865 (0x92F96AE04D739DE1BEE58EC6F04D01F9)

Complete name                            : C:\Users\Bruno\Desktop\╝Torrent\Une folle envie (2011) [Fr][].mkv

Format                                   : Matroska

Format version                           : Version 4 / Version 2

File size                                : 695 MiB

Duration                                 : 1h 17mn

Overall bit rate                         : 1 256 Kbps

Encoded date                             : UTC 2013-09-08 08:47:47

Writing application                      : mkvmerge v6.3.0 ('You can't stop me!') built on Jun 28 2013 20:09:41

Writing library                          : libebml v1.3.0 + libmatroska v1.4.0



Video

ID                                       : 1

Format                                   : MPEG-4 Visual

Format profile                           : Advanced Simple@L5

Format settings, BVOP                    : Yes

Format settings, QPel                    : No

Format settings, GMC                     : No warppoints

Format settings, Matrix                  : Default (MPEG)

Codec ID                                 : V_MS/VFW/FOURCC / XVID

Codec ID/Hint                            : XviD

Duration                                 : 1h 17mn

Bit rate                                 : 1 103 Kbps

Width                                    : 656 pixels

Height                                   : 272 pixels

Display aspect ratio                     : 2.40:1

Frame rate mode                          : Constant

Frame rate                               : 25.000 fps

Color space                              : YUV

Chroma subsampling                       : 4:2:0

Bit depth                                : 8 bits

Scan type                                : Progressive

Compression mode                         : Lossy

Bits/(Pixel*Frame)                       : 0.247

Stream size                              : 611 MiB (88%)

Writing library                          : XviD 1.2.1 (UTC 2008-12-04)

Language                                 : French

Default                                  : Yes

Forced                                   : No



Audio

ID                                       : 2

Format                                   : MPEG Audio

Format version                           : Version 1

Format profile                           : Layer 3

Mode                                     : Joint stereo

Codec ID                                 : A_MPEG/L3

Codec ID/Hint                            : MP3

Duration                                 : 1h 17mn

Bit rate mode                            : Constant

Bit rate                                 : 128 Kbps

Channel(s)                               : 2 channels

Sampling rate                            : 48.0 KHz

Compression mode                         : Lossy

Stream size                              : 70.9 MiB (10%)

Writing library                          : LAME3.97 

Encoding settings                        : -m j -V 4 -q 2 -lowpass 17 -b 128

Language                                 : French

Default                                  : Yes

Forced                                   : No



Ajouter un commentaire

Sere08 ↑ 198.76 GB ↓ 18.98 GB Ratio: 10,46

Au top !!

Zorglub2048

Merci pour le partage.

 
Loading...