Torrent

The.Walking.Dead.S07E13.VOSTFR.WEB-DL.x264-ARK01 URL Raccourcie

The Walking Dead S07E13 VOSTFR





Origine de la série : Américaine
Réalisateur(s) : Frank Darabont
Acteurs : Andrew Lincoln, Steven Yeun, Chandler Riggs
Genre : Drame, Epouvante-horreur
Note : 4.5
Fiche allociné : The Walking Dead



Après une apocalypse ayant transformé la quasi-totalité de la population en zombies, un groupe d'hommes et de femmes mené par l'officier Rick Grimes tente de survivre... Ensemble, ils vont devoir tant bien que mal faire face à ce nouveau monde devenu méconnaissable, à travers leur périple dans le Sud profond des États-Unis.



Qualité : WEB-DL
Format : Mpeg4
Langue :
Sous-titres : Officiels
Codec vidéo : x264
Codec audio : AAC

.:: Release ::.
The.Walking.Dead.S07E13.VOSTFR.WEB-DL.x264-ARK01


Total du post : 405 Mo


LIENS DE TÉLÉCHARGEMENT

Télécharger The.Walking.Dead.S07E13.VOSTFR.WEB-DL.x264-ARK01 URL Raccourcie gratuitement

Cliquez ici pour télécharger la version FRANCAISE
PUB



TÉLÉCHARGER The.Walking.Dead.S07E13.VOSTFR.WEB-DL.x264-ARK01 AVEC USENET (ANONYME&RAPIDE) 14 jours gratuits

PUB

↓↓↓ The.Walking.Dead.S07E13.VOSTFR.WEB-DL.x264-ARK01 ↓↓↓
 
Seeders 3048 Leechers 3 Téléchargements 15170
 
Télécharger Dire merci! Signaler
Voir la liste des membres qui vous remercient
↑↑↑ The.Walking.Dead.S07E13.VOSTFR.WEB-DL.x264-ARK01 ↑↑↑

Informations

Nom The.Walking.Dead.S07E13.VOSTFR.WEB-DL.x264-ARK01
Torrent The.Walking.Dead.S07E13.VOSTFR.WEB-DL.x264-ARK01.mp4.torrent
Catégorie Série TV
Taille totale 405.38 MB
Info Hash f850740d10df074359cec35a8951a19517800b92
Uploadé par Arkhos01
Uploadé le 2017-03-16 10:17:46 (+00:00)
Visites 5346
évaluation 4.9/5 (43 votes)

Liste des Fichiers

Path Size
The.Walking.Dead.S07E13.VOSTFR.WEB-DL.x264-ARK01.mp4 405.38 MB

Voir le NFO

General
Complete name               : The.Walking.Dead.S07E13.VOSTFR.WEB-DL.x264-ARK01.mp4
Format                      : MPEG-4
Format profile              : Base Media
Codec ID                    : isom
File size                   : 405 MiB
Duration                    : 47mn 19s
Overall bit rate mode       : Variable
Overall bit rate            : 1 198 Kbps
Encoded date                : UTC 2017-03-13 08:46:11
Tagged date                 : UTC 2017-03-13 08:46:11

Video
ID                          : 1
Format                      : AVC
Format/Info                 : Advanced Video Codec
Format profile              : [email protected]
Format settings, CABAC      : Yes
Format settings, ReFrames   : 5 frames
Codec ID                    : avc1
Codec ID/Info               : Advanced Video Coding
Duration                    : 47mn 19s
Bit rate                    : 1 062 Kbps
Maximum bit rate            : 3 378 Kbps
Width                       : 720 pixels
Height                      : 404 pixels
Display aspect ratio        : 16:9
Frame rate mode             : Constant
Frame rate                  : 23.976 fps
Color space                 : YUV
Chroma subsampling          : 4:2:0
Bit depth                   : 8 bits
Scan type                   : Progressive
Bits/(Pixel*Frame)          : 0.152
Stream size                 : 359 MiB (89%)
Writing library             : x264 core 148 r2762 90a61ec
Encoded date                : UTC 2017-03-13 08:46:11
Tagged date                 : UTC 2017-03-13 08:46:15
Color range                 : Limited
Matrix coefficients         : BT.709

Audio
ID                          : 2
Format                      : AAC
Format/Info                 : Advanced Audio Codec
Format profile              : LC
Codec ID                    : 40
Duration                    : 47mn 19s
Bit rate mode               : Variable
Bit rate                    : 132 Kbps
Maximum bit rate            : 165 Kbps
Channel(s)                  : 2 channels
Channel positions           : Front: L R
Sampling rate               : 48.0 KHz
Compression mode            : Lossy
Stream size                 : 44.7 MiB (11%)
Encoded date                : UTC 2017-03-13 08:26:57
Tagged date                 : UTC 2017-03-13 08:46:15

Sources : FUM - DVDRip Z2 sous-titres.eu

Ajouter un commentaire

phener ↑ 871.45 GB ↓ 348.82 GB Ratio: 2,49

merciiiiiii top. fichier pas lourd et bonne qualité

Halimou62 ↑ 945.06 GB ↓ 469.12 GB Ratio: 2,01

merci pour le partage

FionaNapoli ↑ 37.49 GB ↓ 25.19 GB Ratio: 1,48

Bonjour et merci pour le partage.

TatooDog ↑ 6.48 TB ↓ 1.41 TB Ratio: 4,59

merci beaucoup !

ThugDog ↑ 13.86 GB ↓ 7.7 GB Ratio: 1,80

merci, bonne qualité

shadowarrior86 ↑ 226.82 GB ↓ 225.91 GB Ratio: 1,00

merci top continuer comme ca

shadowarrior86 ↑ 226.82 GB ↓ 225.91 GB Ratio: 1,00

merci top continuer comme ca

shadowarrior86 ↑ 226.82 GB ↓ 225.91 GB Ratio: 1,00

merci top continuer comme ca

gigitag ↑ 6.61 TB ↓ 4.16 TB Ratio: 1,58

 
Loading...