Torrent

The.Walking.Dead.S07E12.VOSTFR.WEB-DL.x264-ARK01 URL Raccourcie

The Walking Dead S07E12 VOSTFR





Origine de la série : Américaine
Réalisateur(s) : Frank Darabont
Acteurs : Andrew Lincoln, Steven Yeun, Chandler Riggs
Genre : Drame, Epouvante-horreur
Note : 4.5
Fiche allociné : The Walking Dead



Après une apocalypse ayant transformé la quasi-totalité de la population en zombies, un groupe d'hommes et de femmes mené par l'officier Rick Grimes tente de survivre... Ensemble, ils vont devoir tant bien que mal faire face à ce nouveau monde devenu méconnaissable, à travers leur périple dans le Sud profond des États-Unis.



Qualité : WEB-DL
Format : Mpeg4
Langue :
Sous-titres : Officiels
Codec vidéo : x264
Codec audio : AAC

.:: Release ::.
The.Walking.Dead.S07E12.VOSTFR.WEB-DL.x264-ARK01


Total du post : 415 Mo


LIENS DE TÉLÉCHARGEMENT

Télécharger The.Walking.Dead.S07E12.VOSTFR.WEB-DL.x264-ARK01 URL Raccourcie gratuitement

Cliquez ici pour télécharger la version FRANCAISE
PUB



TÉLÉCHARGER The.Walking.Dead.S07E12.VOSTFR.WEB-DL.x264-ARK01 AVEC USENET (ANONYME&RAPIDE) 14 jours gratuits

PUB

↓↓↓ The.Walking.Dead.S07E12.VOSTFR.WEB-DL.x264-ARK01 ↓↓↓
 
Seeders 2151 Leechers 5 Téléchargements 12595
 
Télécharger Dire merci! Signaler
Voir la liste des membres qui vous remercient
↑↑↑ The.Walking.Dead.S07E12.VOSTFR.WEB-DL.x264-ARK01 ↑↑↑

Informations

Nom The.Walking.Dead.S07E12.VOSTFR.WEB-DL.x264-ARK01
Torrent The.Walking.Dead.S07E12.VOSTFR.WEB-DL.x264-ARK01.mp4.torrent
Catégorie Série TV
Taille totale 415.27 MB
Info Hash 70ddad2169fb770c478b9dad3894c1630313b493
Uploadé par Arkhos01
Uploadé le 2017-03-09 00:19:06 (+00:00)
Visites 7939
évaluation 4.9/5 (90 votes)

Liste des Fichiers

Path Size
The.Walking.Dead.S07E12.VOSTFR.WEB-DL.x264-ARK01.mp4 415.27 MB

Voir le NFO

General
Complete name               : The.Walking.Dead.S07E12.VOSTFR.WEB-DL.x264-ARK01.mp4
Format                      : MPEG-4
Format profile              : Base Media
Codec ID                    : isom
File size                   : 415 MiB
Duration                    : 43mn 5s
Overall bit rate mode       : Variable
Overall bit rate            : 1 347 Kbps
Encoded date                : UTC 2017-03-06 10:18:32
Tagged date                 : UTC 2017-03-06 10:18:32

Video
ID                          : 1
Format                      : AVC
Format/Info                 : Advanced Video Codec
Format profile              : [email protected]
Format settings, CABAC      : Yes
Format settings, ReFrames   : 5 frames
Codec ID                    : avc1
Codec ID/Info               : Advanced Video Coding
Duration                    : 43mn 5s
Bit rate                    : 1 211 Kbps
Maximum bit rate            : 4 375 Kbps
Width                       : 720 pixels
Height                      : 404 pixels
Display aspect ratio        : 16:9
Frame rate mode             : Constant
Frame rate                  : 23.976 fps
Color space                 : YUV
Chroma subsampling          : 4:2:0
Bit depth                   : 8 bits
Scan type                   : Progressive
Bits/(Pixel*Frame)          : 0.174
Stream size                 : 373 MiB (90%)
Writing library             : x264 core 148 r2762 90a61ec
Encoded date                : UTC 2017-03-06 10:18:32
Tagged date                 : UTC 2017-03-06 10:18:39
Color range                 : Limited
Matrix coefficients         : BT.709

Audio
ID                          : 2
Format                      : AAC
Format/Info                 : Advanced Audio Codec
Format profile              : LC
Codec ID                    : 40
Duration                    : 43mn 5s
Bit rate mode               : Variable
Bit rate                    : 132 Kbps
Maximum bit rate            : 201 Kbps
Channel(s)                  : 2 channels
Channel positions           : Front: L R
Sampling rate               : 48.0 KHz
Compression mode            : Lossy
Stream size                 : 40.7 MiB (10%)
Encoded date                : UTC 2017-03-06 09:57:18
Tagged date                 : UTC 2017-03-06 10:18:39

Sources : RBG - DVDRip Z2 sous-titres.eu

Ajouter un commentaire

dragonluciolis ↑ 668.69 GB ↓ 624.61 GB Ratio: 1,07

merci bp

stjude2004 ↑ 107.69 GB ↓ 19.66 GB Ratio: 5,47

Merci beaucoup pour le partage !

jojobillezois ↑ 223.21 GB ↓ 140.74 GB Ratio: 1,58

geniallissime merci bcp

jojobillezois ↑ 223.21 GB ↓ 140.74 GB Ratio: 1,58

geniallissime merci bcp

jojobillezois ↑ 223.21 GB ↓ 140.74 GB Ratio: 1,58

geniallissime merci bcp

TatooDog ↑ 6.48 TB ↓ 1.41 TB Ratio: 4,59

merci beaucoup !

GILLOU56230 ↑ 192.44 GB ↓ 191.82 GB Ratio: 1,00

NICKEL, SON ET IMAGE, RIEN A DIRE.
MILLE MERCI.

TGLEVA ↑ 2.86 TB ↓ 2.17 TB Ratio: 1,31

miles gracias

TGLEVA ↑ 2.86 TB ↓ 2.17 TB Ratio: 1,31

miles gracias

therealpeople ↑ 788.12 GB ↓ 546.23 GB Ratio: 1,44

Toujours nickel en effet ! Merci à toi de proposer un format mpeg4 car même avec mon VLC à jour j'ai des saccades avec leurs nouveaux codecs de guedins. Encore merci et see you on episode 13

therealpeople ↑ 788.12 GB ↓ 546.23 GB Ratio: 1,44

Toujours nickel en effet ! Merci à toi de proposer un format mpeg4 car même avec mon VLC à jour j'ai des saccades avec leurs nouveaux codecs de guedins. Encore merci et see you on episode 13

Dindojul ↑ 1.1 TB ↓ 1006.54 GB Ratio: 1,11

Au top, comme toujours!

Highpower03 ↑ 25.04 TB ↓ 3.02 TB Ratio: 8,28

Merci pour la série !

 
Loading...