Torrent

The.Walking.Dead.S07E11.VOSTFR.WEB-DL.x264-ARK01 URL Raccourcie

The Walking Dead S07E11 VOSTFR





Origine de la série : Américaine
Réalisateur(s) : Frank Darabont
Acteurs : Andrew Lincoln, Steven Yeun, Chandler Riggs
Genre : Drame, Epouvante-horreur
Note : 4.5
Fiche allociné : The Walking Dead



Après une apocalypse ayant transformé la quasi-totalité de la population en zombies, un groupe d'hommes et de femmes mené par l'officier Rick Grimes tente de survivre... Ensemble, ils vont devoir tant bien que mal faire face à ce nouveau monde devenu méconnaissable, à travers leur périple dans le Sud profond des États-Unis.



Qualité : WEB-DL
Format : Mpeg4
Langue :
Sous-titres : Officiels
Codec vidéo : x264
Codec audio : AAC

.:: Release ::.
The.Walking.Dead.S07E11.VOSTFR.WEB-DL.x264-ARK01


Total du post : 375 Mo


LIENS DE TÉLÉCHARGEMENT

Télécharger The.Walking.Dead.S07E11.VOSTFR.WEB-DL.x264-ARK01 URL Raccourcie gratuitement

Cliquez ici pour télécharger la version FRANCAISE
PUB



TÉLÉCHARGER The.Walking.Dead.S07E11.VOSTFR.WEB-DL.x264-ARK01 AVEC USENET (ANONYME&RAPIDE) 14 jours gratuits

PUB

↓↓↓ The.Walking.Dead.S07E11.VOSTFR.WEB-DL.x264-ARK01 ↓↓↓
 
Seeders 1913 Leechers 9 Téléchargements 12583
 
Télécharger Dire merci! Signaler
Voir la liste des membres qui vous remercient
↑↑↑ The.Walking.Dead.S07E11.VOSTFR.WEB-DL.x264-ARK01 ↑↑↑

Informations

Nom The.Walking.Dead.S07E11.VOSTFR.WEB-DL.x264-ARK01
Torrent The.Walking.Dead.S07E11.VOSTFR.WEB-DL.x264-ARK01.mp4.torrent
Catégorie Série TV
Taille totale 375.59 MB
Info Hash fff3580a34f5bbfefb9bca90a3cb775612bb2232
Uploadé par Arkhos01
Uploadé le 2017-03-03 05:57:27 (+00:00)
Visites 7508
évaluation 4.9/5 (78 votes)

Liste des Fichiers

Path Size
The.Walking.Dead.S07E11.VOSTFR.WEB-DL.x264-ARK01.mp4 375.59 MB

Voir le NFO

General
Complete name               : The.Walking.Dead.S07E11.VOSTFR.WEB-DL.x264-ARK01.mp4
Format                      : MPEG-4
Format profile              : Base Media
Codec ID                    : isom
File size                   : 376 MiB
Duration                    : 49mn 11s
Overall bit rate mode       : Variable
Overall bit rate            : 1 068 Kbps
Encoded date                : UTC 2017-02-27 10:48:01
Tagged date                 : UTC 2017-02-27 10:48:01

Video
ID                          : 1
Format                      : AVC
Format/Info                 : Advanced Video Codec
Format profile              : [email protected]
Format settings, CABAC      : Yes
Format settings, ReFrames   : 5 frames
Codec ID                    : avc1
Codec ID/Info               : Advanced Video Coding
Duration                    : 49mn 11s
Bit rate                    : 932 Kbps
Maximum bit rate            : 3 409 Kbps
Width                       : 720 pixels
Height                      : 404 pixels
Display aspect ratio        : 16:9
Frame rate mode             : Constant
Frame rate                  : 23.976 fps
Color space                 : YUV
Chroma subsampling          : 4:2:0
Bit depth                   : 8 bits
Scan type                   : Progressive
Bits/(Pixel*Frame)          : 0.134
Stream size                 : 328 MiB (87%)
Writing library             : x264 core 148 r2762 90a61ec
Encoded date                : UTC 2017-02-27 10:48:01
Tagged date                 : UTC 2017-02-27 10:48:05
Color range                 : Limited
Matrix coefficients         : BT.709

Audio
ID                          : 2
Format                      : AAC
Format/Info                 : Advanced Audio Codec
Format profile              : LC
Codec ID                    : 40
Duration                    : 49mn 11s
Bit rate mode               : Variable
Bit rate                    : 132 Kbps
Maximum bit rate            : 161 Kbps
Channel(s)                  : 2 channels
Channel positions           : Front: L R
Sampling rate               : 48.0 KHz
Compression mode            : Lossy
Stream size                 : 46.4 MiB (12%)
Encoded date                : UTC 2017-02-27 10:25:27
Tagged date                 : UTC 2017-02-27 10:48:05

Sources : RBG - DVDRip Z2 sous-titres.eu

Ajouter un commentaire

FionaNapoli ↑ 37.49 GB ↓ 25.19 GB Ratio: 1,48

Merci pour ce partage. @ +

kaarlitto25000 ↑ 798.4 GB ↓ 653.31 GB Ratio: 1,22

super ARK01 félicitations pour ton taf,merci encore

lorent83 ↑ 1.63 TB ↓ 372.58 GB Ratio: 4,47

lorent83 ↑ 1.63 TB ↓ 372.58 GB Ratio: 4,47

LilyLoan ↑ 10.05 GB ↓ 391.59 MB Ratio: 26,27

Merci pour le lien

ARTHUSERGE ↑ 788.61 GB ↓ 355.25 GB Ratio: 2,21

Merci pour le partage.
Excellente qualité

NewLook ↑ 10.09 GB ↓ 2.38 GB Ratio: 4,23

Merci beaucoup pour votre bon travail A+

diablo09203 yu mo gui gwai fai di zao ↑ 1014.96 GB ↓ 556.17 GB Ratio: 1,82

merci bcp

yu mo gui gwai fai di zao !
yu mo gui gwai fai di zao !

L'oncle Chan !

lokimouth ↑ 3.82 TB ↓ 3.08 TB Ratio: 1,24

merci pour le travail ! vivement les prochains

lokimouth ↑ 3.82 TB ↓ 3.08 TB Ratio: 1,24

merci pour le travail ! vivement les prochains

lokimouth ↑ 3.82 TB ↓ 3.08 TB Ratio: 1,24

merci pour le travail ! vivement les prochains

Lasamp ↑ 367.42 GB ↓ 366.17 GB Ratio: 1,00

Vidéo, son, sous-titres ok, merci.

Lasamp ↑ 367.42 GB ↓ 366.17 GB Ratio: 1,00

Vidéo, son, sous-titres ok, merci.

 
Loading...