Torrent

The.Walking.Dead.S07E11.VOSTFR.720p.WEB-DL.DD5.1.H264-ARK01 URL Raccourcie

The Walking Dead S07E11 VOSTFR 720p





Origine de la série : Américaine
Réalisateur(s) : Frank Darabont
Acteurs : Andrew Lincoln, Steven Yeun, Chandler Riggs
Genre : Drame, Epouvante-horreur
Note : 4.5
Fiche allociné : The Walking Dead



Après une apocalypse ayant transformé la quasi-totalité de la population en zombies, un groupe d'hommes et de femmes mené par l'officier Rick Grimes tente de survivre... Ensemble, ils vont devoir tant bien que mal faire face à ce nouveau monde devenu méconnaissable, à travers leur périple dans le Sud profond des États-Unis.



Qualité : WEB-DL 720p
Format : MKV
Langue :
Sous-titres : Officiels +
Codec vidéo : H264
Codec audio : AC3 5.1

.:: Release ::.
The.Walking.Dead.S07E11.VOSTFR.720p.WEB-DL.DD5.1.H264-ARK01


Total du post : 1.55 Go


LIENS DE TÉLÉCHARGEMENT

Télécharger The.Walking.Dead.S07E11.VOSTFR.720p.WEB-DL.DD5.1.H264-ARK01 URL Raccourcie gratuitement

Cliquez ici pour télécharger la version FRANCAISE
PUB



TÉLÉCHARGER The.Walking.Dead.S07E11.VOSTFR.720p.WEB-DL.DD5.1.H264-ARK01 AVEC USENET (ANONYME&RAPIDE) 14 jours gratuits

PUB

↓↓↓ The.Walking.Dead.S07E11.VOSTFR.720p.WEB-DL.DD5.1.H264-ARK01 ↓↓↓
 
Seeders 1603 Leechers 3 Téléchargements 9692
 
Télécharger Dire merci! Signaler
Voir la liste des membres qui vous remercient
↑↑↑ The.Walking.Dead.S07E11.VOSTFR.720p.WEB-DL.DD5.1.H264-ARK01 ↑↑↑

Informations

Nom The.Walking.Dead.S07E11.VOSTFR.720p.WEB-DL.DD5.1.H264-ARK01
Torrent The.Walking.Dead.S07E11.VOSTFR.720p.WEB-DL.DD5.1.H264-ARK01.mkv.torrent
Catégorie Série TV
Taille totale 1.55 GB
Info Hash acd77105c18b101917768e728736b1f833302e0d
Uploadé par Arkhos01
Uploadé le 2017-03-03 05:56:31 (+00:00)
Visites 4257
évaluation 4.9/5 (19 votes)

Liste des Fichiers

Path Size
The.Walking.Dead.S07E11.VOSTFR.720p.WEB-DL.DD5.1.H264-ARK01.mkv 1.55 GB

Voir le NFO

General
Complete name                            : The.Walking.Dead.S07E11.VOSTFR.720p.WEB-DL.DD5.1.H264-ARK01.mkv
Format                                   : Matroska
Format version                           : Version 4 / Version 2
File size                                : 1.55 GiB
Duration                                 : 49mn 11s
Overall bit rate                         : 4 511 Kbps
Encoded date                             : UTC 2017-02-27 09:25:06
Writing application                      : mkvmerge v8.3.0 ('Over the Horizon') 64bit
Writing library                          : libebml v1.3.1 + libmatroska v1.4.2

Video
ID                                       : 1
Format                                   : AVC
Format/Info                              : Advanced Video Codec
Format profile                           : [email protected]
Format settings, CABAC                   : No
Format settings, ReFrames                : 2 frames
Codec ID                                 : V_MPEG4/ISO/AVC
Duration                                 : 49mn 11s
Bit rate                                 : 4 037 Kbps
Width                                    : 1 280 pixels
Height                                   : 718 pixels
Display aspect ratio                     : 16:9
Frame rate mode                          : Constant
Frame rate                               : 23.976 fps
Color space                              : YUV
Chroma subsampling                       : 4:2:0
Bit depth                                : 8 bits
Scan type                                : Progressive
Bits/(Pixel*Frame)                       : 0.183
Stream size                              : 1.39 GiB (89%)
Language                                 : English
Default                                  : Yes
Forced                                   : No
Color range                              : Limited
Color primaries                          : BT.709
Transfer characteristics                 : BT.709
Matrix coefficients                      : BT.709

Audio
ID                                       : 2
Format                                   : AC-3
Format/Info                              : Audio Coding 3
Mode extension                           : CM (complete main)
Format settings, Endianness              : Big
Codec ID                                 : A_AC3
Duration                                 : 49mn 11s
Bit rate mode                            : Constant
Bit rate                                 : 384 Kbps
Channel(s)                               : 6 channels
Channel positions                        : Front: L C R, Side: L R, LFE
Sampling rate                            : 48.0 KHz
Compression mode                         : Lossy
Stream size                              : 135 MiB (9%)
Language                                 : English
Default                                  : Yes
Forced                                   : No

Text #1
ID                                       : 3
Format                                   : UTF-8
Codec ID                                 : S_TEXT/UTF8
Codec ID/Info                            : UTF-8 Plain Text
Language                                 : French
Default                                  : Yes
Forced                                   : No

Text #2
ID                                       : 4
Format                                   : UTF-8
Codec ID                                 : S_TEXT/UTF8
Codec ID/Info                            : UTF-8 Plain Text
Language                                 : English
Default                                  : No
Forced                                   : No

Sources : RBG - DVDRip Z2 sous-titres.eu

Ajouter un commentaire

kromano ↑ 2.66 TB ↓ 2.55 TB Ratio: 1,04

Je préfère largement prendre des épisodes 720p qui dépassent le giga avec une bonne compression, que les autres 720p qui sortent en ce moment à 400-500mo en moyenne avec des pixels de partout !

Merci pour l'up !

PotironCell GkS ForEver ↑ 3.89 TB ↓ 1.23 TB Ratio: 3,16

Quelqu'un peut me dire pourquoi y'a tant de commentaires négatifs sans aucune argumentation ?

Il faut quand même bien savoir qu'ici on a la chance de récupérer tout un tas de vidéos, musiques, livres etc., gratos, et que le travail est effectué par des fans qui font ça pour nous, donc on se contente de dire merci quand on est content.
Si ça nous plaît pas, on peut aller voir ailleurs...

Nan mais ça m'énerve...

MERCI AUX TEAMS !!!

Baradh ↑ 3.8 TB ↓ 1.1 TB Ratio: 3,45

Quelqu'un peut m'expliquer pourquoi la taille de l'épisode en 720p dépasse le giga? Ils savent pas faire des release légère the TWD? Merci d'avance

 
Loading...