Torrent

The.Walking.Dead.S07E11.VOSTFR.1080p.WEB-DL.DD5.1.H264-ARK01 URL Raccourcie

The Walking Dead S07E11 VOSTFR 1080p





Origine de la série : Américaine
Réalisateur(s) : Frank Darabont
Acteurs : Andrew Lincoln, Steven Yeun, Chandler Riggs
Genre : Drame, Epouvante-horreur
Note : 4.5
Fiche allociné : The Walking Dead



Après une apocalypse ayant transformé la quasi-totalité de la population en zombies, un groupe d'hommes et de femmes mené par l'officier Rick Grimes tente de survivre... Ensemble, ils vont devoir tant bien que mal faire face à ce nouveau monde devenu méconnaissable, à travers leur périple dans le Sud profond des États-Unis.



Qualité : WEB-DL 1080p
Format : MKV
Langue :
Sous-titres : Officiels +
Codec vidéo : H264
Codec audio : AC3 5.1

.:: Release ::.
The.Walking.Dead.S07E11.VOSTFR.1080p.WEB-DL.DD5.1.H264-ARK01


Total du post : 1.94 Go


LIENS DE TÉLÉCHARGEMENT

Télécharger The.Walking.Dead.S07E11.VOSTFR.1080p.WEB-DL.DD5.1.H264-ARK01 URL Raccourcie gratuitement

Cliquez ici pour télécharger la version FRANCAISE
PUB



TÉLÉCHARGER The.Walking.Dead.S07E11.VOSTFR.1080p.WEB-DL.DD5.1.H264-ARK01 AVEC USENET (ANONYME&RAPIDE) 14 jours gratuits

PUB

↓↓↓ The.Walking.Dead.S07E11.VOSTFR.1080p.WEB-DL.DD5.1.H264-ARK01 ↓↓↓
 
Seeders 3169 Leechers 7 Téléchargements 17991
 
Télécharger Dire merci! Signaler
Voir la liste des membres qui vous remercient
↑↑↑ The.Walking.Dead.S07E11.VOSTFR.1080p.WEB-DL.DD5.1.H264-ARK01 ↑↑↑

Informations

Nom The.Walking.Dead.S07E11.VOSTFR.1080p.WEB-DL.DD5.1.H264-ARK01
Torrent The.Walking.Dead.S07E11.VOSTFR.1080p.WEB-DL.DD5.1.H264-ARK01.mkv.torrent
Catégorie Série TV
Taille totale 1.95 GB
Info Hash 92ab8245217537540901b6eca6b51b61e55251b4
Uploadé par Arkhos01
Uploadé le 2017-03-03 05:55:27 (+00:00)
Visites 7728
évaluation 5/5 (57 votes)

Liste des Fichiers

Path Size
The.Walking.Dead.S07E11.VOSTFR.1080p.WEB-DL.DD5.1.H264-ARK01.mkv 1.95 GB

Voir le NFO

General
Complete name                            : The.Walking.Dead.S07E11.VOSTFR.1080p.WEB-DL.DD5.1.H264-ARK01.mkv
Format                                   : Matroska
Format version                           : Version 4 / Version 2
File size                                : 1.95 GiB
Duration                                 : 49mn 11s
Overall bit rate                         : 5 662 Kbps
Encoded date                             : UTC 2017-02-27 09:15:07
Writing application                      : mkvmerge v8.3.0 ('Over the Horizon') 64bit
Writing library                          : libebml v1.3.1 + libmatroska v1.4.2

Video
ID                                       : 1
Format                                   : AVC
Format/Info                              : Advanced Video Codec
Format profile                           : [email protected]
Format settings, CABAC                   : Yes
Format settings, ReFrames                : 4 frames
Codec ID                                 : V_MPEG4/ISO/AVC
Duration                                 : 49mn 11s
Bit rate                                 : 5 165 Kbps
Width                                    : 1 916 pixels
Height                                   : 1 076 pixels
Display aspect ratio                     : 16:9
Frame rate mode                          : Constant
Frame rate                               : 23.976 fps
Color space                              : YUV
Chroma subsampling                       : 4:2:0
Bit depth                                : 8 bits
Scan type                                : Progressive
Bits/(Pixel*Frame)                       : 0.104
Stream size                              : 1.77 GiB (91%)
Language                                 : English
Default                                  : Yes
Forced                                   : No
Color range                              : Limited
Color primaries                          : BT.709
Transfer characteristics                 : BT.709
Matrix coefficients                      : BT.709

Audio
ID                                       : 2
Format                                   : AC-3
Format/Info                              : Audio Coding 3
Mode extension                           : CM (complete main)
Format settings, Endianness              : Big
Codec ID                                 : A_AC3
Duration                                 : 49mn 11s
Bit rate mode                            : Constant
Bit rate                                 : 384 Kbps
Channel(s)                               : 6 channels
Channel positions                        : Front: L C R, Side: L R, LFE
Sampling rate                            : 48.0 KHz
Compression mode                         : Lossy
Stream size                              : 135 MiB (7%)
Language                                 : English
Default                                  : Yes
Forced                                   : No

Text #1
ID                                       : 3
Format                                   : UTF-8
Codec ID                                 : S_TEXT/UTF8
Codec ID/Info                            : UTF-8 Plain Text
Language                                 : French
Default                                  : Yes
Forced                                   : No

Text #2
ID                                       : 4
Format                                   : UTF-8
Codec ID                                 : S_TEXT/UTF8
Codec ID/Info                            : UTF-8 Plain Text
Language                                 : English
Default                                  : No
Forced                                   : No

Sources : RBG - DVDRip Z2 sous-titres.eu

Ajouter un commentaire

Arkhos01 ↑ 63.41 TB ↓ 79.32 GB Ratio: 818,56

La série est ciblée par les ayants droit donc toutes les semaines le nouvel épisode est supprimé.
On ne reçoit pas d'avertissement donc prévenez les uploaders pour qu'il soit reup

rorol63

pareil ???

flyhb ↑ 790.82 GB ↓ 759.49 GB Ratio: 1,04

Meme question....??

Nass67 ↑ 3.26 TB ↓ 2.14 TB Ratio: 1,52

je sais pas du tout je le cherche aussi x)

Codemaster ↑ 8.18 TB ↓ 4.32 TB Ratio: 1,89

Vous savez pourquoi l'épisode 12 n'est pas sur le site ?

titisteez ↑ 2.32 TB ↓ 791.46 GB Ratio: 3,00

merci merci merci merci beaucoup!!!

titisteez ↑ 2.32 TB ↓ 791.46 GB Ratio: 3,00

merci merci merci merci beaucoup!!!

titisteez ↑ 2.32 TB ↓ 791.46 GB Ratio: 3,00

merci merci merci merci beaucoup!!!

titisteez ↑ 2.32 TB ↓ 791.46 GB Ratio: 3,00

merci merci merci merci beaucoup!!!

oli51 ↑ 1.57 TB ↓ 1.02 TB Ratio: 1,53

Merci au top comme toujours !!

oli51 ↑ 1.57 TB ↓ 1.02 TB Ratio: 1,53

Merci au top comme toujours !!

oli51 ↑ 1.57 TB ↓ 1.02 TB Ratio: 1,53

Merci au top comme toujours !!

oli51 ↑ 1.57 TB ↓ 1.02 TB Ratio: 1,53

Merci au top comme toujours !!

oli51 ↑ 1.57 TB ↓ 1.02 TB Ratio: 1,53

Merci au top comme toujours !!

oli51 ↑ 1.57 TB ↓ 1.02 TB Ratio: 1,53

Merci au top comme toujours !!

InsaneKarkass ↑ 606.36 GB ↓ 556.09 GB Ratio: 1,09

THANKX !!! !!!

 
Loading...