Torrent

The.Walking.Dead.S07E10.VOSTFR.WEB-DL.x264-ARK01 URL Raccourcie

The Walking Dead S07E10 VOSTFR





Origine de la série : Américaine
Réalisateur(s) : Frank Darabont
Acteurs : Andrew Lincoln, Steven Yeun, Chandler Riggs
Genre : Drame, Epouvante-horreur
Note : 4.5
Fiche allociné : The Walking Dead



Après une apocalypse ayant transformé la quasi-totalité de la population en zombies, un groupe d'hommes et de femmes mené par l'officier Rick Grimes tente de survivre... Ensemble, ils vont devoir tant bien que mal faire face à ce nouveau monde devenu méconnaissable, à travers leur périple dans le Sud profond des États-Unis.



Qualité : WEB-DL
Format : Mpeg4
Langue :
Sous-titres : Officiels
Codec vidéo : x264
Codec audio : AAC

.:: Release ::.
The.Walking.Dead.S07E10.VOSTFR.WEB-DL.x264-ARK01


Total du post : 491 Mo


LIENS DE TÉLÉCHARGEMENT

Télécharger The.Walking.Dead.S07E10.VOSTFR.WEB-DL.x264-ARK01 URL Raccourcie gratuitement

Cliquez ici pour télécharger la version FRANCAISE
PUB



TÉLÉCHARGER The.Walking.Dead.S07E10.VOSTFR.WEB-DL.x264-ARK01 AVEC USENET (ANONYME&RAPIDE) 14 jours gratuits

PUB

↓↓↓ The.Walking.Dead.S07E10.VOSTFR.WEB-DL.x264-ARK01 ↓↓↓
 
Seeders 2498 Leechers 4 Téléchargements 18792
 
Télécharger Dire merci! Signaler
Voir la liste des membres qui vous remercient
↑↑↑ The.Walking.Dead.S07E10.VOSTFR.WEB-DL.x264-ARK01 ↑↑↑

Informations

Nom The.Walking.Dead.S07E10.VOSTFR.WEB-DL.x264-ARK01
Torrent The.Walking.Dead.S07E10.VOSTFR.WEB-DL.x264-ARK01.mp4.torrent
Catégorie Série TV
Taille totale 491.59 MB
Info Hash 6cbb0c269df536f89b3470ed63a273a1e8c244cb
Uploadé par Arkhos01
Uploadé le 2017-02-22 13:27:06 (+00:00)
Visites 12643
évaluation 4.9/5 (127 votes)

Liste des Fichiers

Path Size
The.Walking.Dead.S07E10.VOSTFR.WEB-DL.x264-ARK01.mp4 491.59 MB

Voir le NFO

General
Complete name               : The.Walking.Dead.S07E10.VOSTFR.WEB-DL.x264-ARK01.mp4
Format                      : MPEG-4
Format profile              : Base Media
Codec ID                    : isom
File size                   : 492 MiB
Duration                    : 46mn 17s
Overall bit rate mode       : Variable
Overall bit rate            : 1 485 Kbps
Encoded date                : UTC 2017-02-20 10:06:41
Tagged date                 : UTC 2017-02-20 10:06:41

Video
ID                          : 1
Format                      : AVC
Format/Info                 : Advanced Video Codec
Format profile              : [email protected]
Format settings, CABAC      : Yes
Format settings, ReFrames   : 5 frames
Codec ID                    : avc1
Codec ID/Info               : Advanced Video Coding
Duration                    : 46mn 17s
Bit rate                    : 1 349 Kbps
Maximum bit rate            : 3 784 Kbps
Width                       : 720 pixels
Height                      : 404 pixels
Display aspect ratio        : 16:9
Frame rate mode             : Constant
Frame rate                  : 23.976 fps
Color space                 : YUV
Chroma subsampling          : 4:2:0
Bit depth                   : 8 bits
Scan type                   : Progressive
Bits/(Pixel*Frame)          : 0.193
Stream size                 : 447 MiB (91%)
Writing library             : x264 core 148 r2762 90a61ec
Encoded date                : UTC 2017-02-20 10:06:41
Tagged date                 : UTC 2017-02-20 10:06:48
Color range                 : Limited
Matrix coefficients         : BT.709

Audio
ID                          : 2
Format                      : AAC
Format/Info                 : Advanced Audio Codec
Format profile              : LC
Codec ID                    : 40
Duration                    : 46mn 17s
Bit rate mode               : Variable
Bit rate                    : 132 Kbps
Maximum bit rate            : 160 Kbps
Channel(s)                  : 2 channels
Channel positions           : Front: L R
Sampling rate               : 48.0 KHz
Compression mode            : Lossy
Stream size                 : 43.7 MiB (9%)
Encoded date                : UTC 2017-02-20 09:43:16
Tagged date                 : UTC 2017-02-20 10:06:48

Sources : RBG - DVDRip Z2 sous-titres.eu

Ajouter un commentaire

1 - 20 | 21 - 35
Arkhos01 ↑ 63.41 TB ↓ 79.32 GB Ratio: 818,56

@mescaline0906 Elle ne lit pas les mp4 ou tous les x264 ?
Tu peux pas passer par une box internet ou un récepteur tnt/sat ?

mescaline0906 ↑ 3.3 TB ↓ 430.81 GB Ratio: 7,85

Bonjour,
Quelqu'un peut me dire pourquoi ma télé ne lit pas les mp4. Est-ce que je dois faire une manip ou y'a rien à faire. Merci à celui qui me répondra

mescaline0906 ↑ 3.3 TB ↓ 430.81 GB Ratio: 7,85

Bonjour,
Quelqu'un peut me dire pourquoi ma télé ne lit pas les mp4. Est-ce que je dois faire une manip ou y'a rien à faire. Merci à celui qui me répondra

mescaline0906 ↑ 3.3 TB ↓ 430.81 GB Ratio: 7,85

Bonjour,
Quelqu'un peut me dire pourquoi ma télé ne lit pas les mp4. Est-ce que je dois faire une manip ou y'a rien à faire. Merci à celui qui me répondra

aika14 ↑ 2.19 TB ↓ 1.64 TB Ratio: 1,33

oui moi aussi !!!!

aika14 ↑ 2.19 TB ↓ 1.64 TB Ratio: 1,33

oui moi aussi !!!!

aika14 ↑ 2.19 TB ↓ 1.64 TB Ratio: 1,33

oui moi aussi !!!!

Rwanitas ↑ 740.73 GB ↓ 459.69 GB Ratio: 1,61

IL y en a d'autres qui confirment le Hadopi?

Rwanitas ↑ 740.73 GB ↓ 459.69 GB Ratio: 1,61

IL y en a d'autres qui confirment le Hadopi?

salvice ↑ 1.18 TB ↓ 1005.45 GB Ratio: 1,19

F..k Hadopi chuis Belge

Et merci pour le partage

Arkhos01 ↑ 63.41 TB ↓ 79.32 GB Ratio: 818,56

La Freebox accepte OpenVPN donc c'est facile à mettre en place^^

chausson666 ↑ 1.34 TB ↓ 1007.34 GB Ratio: 1,36

owrow, avec certains vpn tu pourras telecharger via la freebox aussi, moi j'utilise VPNFacile,je me suis fait goler aussi par hadopi^^ c'est sans doute pas le meilleur mais au moins je dl via la freebox quand meme (c'est payant hein

chausson666 ↑ 1.34 TB ↓ 1007.34 GB Ratio: 1,36

owrow, avec certains vpn tu pourras telecharger via la freebox aussi, moi j'utilise VPNFacile,je me suis fait goler aussi par hadopi^^ c'est sans doute pas le meilleur mais au moins je dl via la freebox quand meme (c'est payant hein

owrow ↑ 1.91 TB ↓ 750.29 GB Ratio: 2,60

C'est quoi ce message hadopi ? Pcq je peux pas utiliser de vin je dl direct de la freebox

owrow ↑ 1.91 TB ↓ 750.29 GB Ratio: 2,60

C'est quoi ce message hadopi ? Pcq je peux pas utiliser de vin je dl direct de la freebox

mackouille69 ↑ 6.88 TB ↓ 3.56 TB Ratio: 1,93

@liliy427 : passes par VPN avec une IP à l'etranger et hop & fuck HADOPI !

liliy427 ↑ 750.47 GB ↓ 683.91 GB Ratio: 1,09

bonne qualité audio et visuelle... Par contre je me suis fait avoir avec hadopi sur ce torrent alors prenez garde !

marcopolomaximo ↑ 4.26 TB ↓ 1.36 TB Ratio: 3,13

bonne image et bon son,merci

TOOUUUNNNNNNNNN ↑ 114.55 GB ↓ 96.35 GB Ratio: 1,18

Bonjour à tous, je ne trouve pas l'épisode 11 or il était présent sur le site lundi.. Quelqu'un peut m'aider ?

Toro25 ↑ 771.9 GB ↓ 499.51 GB Ratio: 1,54

Merci pour ce partage

1 - 20 | 21 - 35
 
Loading...