Torrent

The.Walking.Dead.S07E09.VOSTFR.WEB-DL.x264-ARK01 URL Raccourcie

The Walking Dead S07E09 VOSTFR





Origine de la série : Américaine
Réalisateur(s) : Frank Darabont
Acteurs : Andrew Lincoln, Steven Yeun, Chandler Riggs
Genre : Drame, Epouvante-horreur
Note : 4.5
Fiche allociné : The Walking Dead



Après une apocalypse ayant transformé la quasi-totalité de la population en zombies, un groupe d'hommes et de femmes mené par l'officier Rick Grimes tente de survivre... Ensemble, ils vont devoir tant bien que mal faire face à ce nouveau monde devenu méconnaissable, à travers leur périple dans le Sud profond des États-Unis.



Qualité : WEB-DL
Format : Mpeg4
Langue :
Sous-titres : Officiels
Codec vidéo : x264
Codec audio : AAC

.:: Release ::.
The.Walking.Dead.S07E09.VOSTFR.WEB-DL.x264-ARK01


Total du post : 487 Mo


LIENS DE TÉLÉCHARGEMENT

Télécharger The.Walking.Dead.S07E09.VOSTFR.WEB-DL.x264-ARK01 URL Raccourcie gratuitement

Cliquez ici pour télécharger la version FRANCAISE
PUB



TÉLÉCHARGER The.Walking.Dead.S07E09.VOSTFR.WEB-DL.x264-ARK01 AVEC USENET (ANONYME&RAPIDE) 14 jours gratuits

PUB

↓↓↓ The.Walking.Dead.S07E09.VOSTFR.WEB-DL.x264-ARK01 ↓↓↓
 
Seeders 1255 Leechers 0 Téléchargements 9818
 
Télécharger Dire merci! Signaler
Voir la liste des membres qui vous remercient
↑↑↑ The.Walking.Dead.S07E09.VOSTFR.WEB-DL.x264-ARK01 ↑↑↑

Informations

Nom The.Walking.Dead.S07E09.VOSTFR.WEB-DL.x264-ARK01
Torrent The.Walking.Dead.S07E09.VOSTFR.WEB-DL.x264-ARK01.mp4.torrent
Catégorie Série TV
Taille totale 487.64 MB
Info Hash b7e1afed9e05d9c3bedaa0630dc7091b728e583c
Uploadé par Arkhos01
Uploadé le 2017-02-14 23:46:01 (+00:00)
Visites 7053
évaluation 4.9/5 (66 votes)

Liste des Fichiers

Path Size
The.Walking.Dead.S07E09.VOSTFR.WEB-DL.x264-ARK01.mp4 487.64 MB

Voir le NFO

General
Complete name               : The.Walking.Dead.S07E09.VOSTFR.WEB-DL.x264-ARK01.mp4
Format                      : MPEG-4
Format profile              : Base Media
Codec ID                    : isom
File size                   : 488 MiB
Duration                    : 52mn 2s
Overall bit rate mode       : Variable
Overall bit rate            : 1 310 Kbps
Encoded date                : UTC 2017-02-13 10:20:22
Tagged date                 : UTC 2017-02-13 10:20:22

Video
ID                          : 1
Format                      : AVC
Format/Info                 : Advanced Video Codec
Format profile              : [email protected]
Format settings, CABAC      : Yes
Format settings, ReFrames   : 5 frames
Codec ID                    : avc1
Codec ID/Info               : Advanced Video Coding
Duration                    : 52mn 2s
Bit rate                    : 1 174 Kbps
Maximum bit rate            : 3 779 Kbps
Width                       : 720 pixels
Height                      : 404 pixels
Display aspect ratio        : 16:9
Frame rate mode             : Constant
Frame rate                  : 23.976 fps
Color space                 : YUV
Chroma subsampling          : 4:2:0
Bit depth                   : 8 bits
Scan type                   : Progressive
Bits/(Pixel*Frame)          : 0.168
Stream size                 : 437 MiB (90%)
Writing library             : x264 core 148 r2762 90a61ec
Encoded date                : UTC 2017-02-13 10:20:22
Tagged date                 : UTC 2017-02-13 10:20:29
Color range                 : Limited
Matrix coefficients         : BT.709

Audio
ID                          : 2
Format                      : AAC
Format/Info                 : Advanced Audio Codec
Format profile              : LC
Codec ID                    : 40
Duration                    : 52mn 2s
Bit rate mode               : Variable
Bit rate                    : 132 Kbps
Maximum bit rate            : 231 Kbps
Channel(s)                  : 2 channels
Channel positions           : Front: L R
Sampling rate               : 48.0 KHz
Compression mode            : Lossy
Stream size                 : 49.1 MiB (10%)
Encoded date                : UTC 2017-02-13 09:56:27
Tagged date                 : UTC 2017-02-13 10:20:29

Sources : RBG - DVDRip Z2 sous-titres.eu

Ajouter un commentaire

LostInTahiti ↑ 10.47 GB ↓ 10.61 GB Ratio: 0,98

cheeeeeers mate !

Maness2b ↑ 744.7 GB ↓ 216.51 GB Ratio: 3,43

Damn !!!!! Trop génial ! Merci !!Il était temps que ce petit monde se réveille !

Psychomama ↑ 761.85 GB ↓ 261.73 GB Ratio: 2,91

Toujours au rendez-vous pour les meilleures série avec une bonne qualité ST/Son/Image.

Franchement MERCI pour tout le travail que vous faites !

A force de lever les yeux au ciel, on marche dans la merde.

Psychomama ↑ 761.85 GB ↓ 261.73 GB Ratio: 2,91

Toujours au rendez-vous pour les meilleures série avec une bonne qualité ST/Son/Image.

Franchement MERCI pour tout le travail que vous faites !

A force de lever les yeux au ciel, on marche dans la merde.

Lasamp ↑ 367.42 GB ↓ 366.17 GB Ratio: 1,00

Sous-titres, video, son ok comme d'habitude merci ark01.

Lasamp ↑ 367.42 GB ↓ 366.17 GB Ratio: 1,00

Sous-titres, video, son ok comme d'habitude merci ark01.

diablo09203 yu mo gui gwai fai di zao ↑ 1014.96 GB ↓ 556.17 GB Ratio: 1,82

yep merci pour l'episode a lundi ^^

yu mo gui gwai fai di zao !
yu mo gui gwai fai di zao !

L'oncle Chan !

Nirelow ↑ 699.26 GB ↓ 635.3 GB Ratio: 1,10

Merci pour cet épisode et à lundi prochain :p

Nirelow ↑ 699.26 GB ↓ 635.3 GB Ratio: 1,10

Merci pour cet épisode et à lundi prochain :p

Doublewestt411 Up Loader ↑ 6.09 TB ↓ 1.45 TB Ratio: 4,18

Merci l'ami

Il n'y a pas de mauvaises machines, de mauvais système d'exploitations, juste de mauvais utilisateurs

cm2017 ↑ 19.9 GB ↓ 15.13 GB Ratio: 1,31

merci pour tout; Très bon boulot

cm2017 ↑ 19.9 GB ↓ 15.13 GB Ratio: 1,31

merci pour tout; Très bon boulot

cm2017 ↑ 19.9 GB ↓ 15.13 GB Ratio: 1,31

merci pour tout; Très bon boulot

tititi93 ↑ 1.35 TB ↓ 1.34 TB Ratio: 1,00

leurs vetement sont toujours aussi bien lavé bien repassé, non abimé etc.. alala mais épisode de bonne qualité

 
Loading...