Torrent

The.Walking.Dead.S07E06.VOSTFR.1080p.WEB-DL.DD5.1.H264-ARK01 URL Raccourcie

The Walking Dead S07E06 VOSTFR 1080p





Origine de la série : Américaine
Réalisateur(s) : Frank Darabont
Acteurs : Andrew Lincoln, Steven Yeun, Chandler Riggs
Genre : Drame, Epouvante-horreur
Note : 4.5
Fiche allociné : The Walking Dead



Après une apocalypse ayant transformé la quasi-totalité de la population en zombies, un groupe d'hommes et de femmes mené par l'officier Rick Grimes tente de survivre... Ensemble, ils vont devoir tant bien que mal faire face à ce nouveau monde devenu méconnaissable, à travers leur périple dans le Sud profond des États-Unis.



Qualité : WEB-DL 1080p
Format : MKV
Langue :
Sous-titres : Officiels +
Codec vidéo : H264
Codec audio : AC3 5.1

.:: Release ::.
The.Walking.Dead.S07E06.VOSTFR.1080p.WEB-DL.DD5.1.H264-ARK01


Total du post : 1.95 Go


LIENS DE TÉLÉCHARGEMENT

Télécharger The.Walking.Dead.S07E06.VOSTFR.1080p.WEB-DL.DD5.1.H264-ARK01 URL Raccourcie gratuitement

Cliquez ici pour télécharger la version FRANCAISE
PUB



TÉLÉCHARGER The.Walking.Dead.S07E06.VOSTFR.1080p.WEB-DL.DD5.1.H264-ARK01 AVEC USENET (ANONYME&RAPIDE) 14 jours gratuits

PUB

↓↓↓ The.Walking.Dead.S07E06.VOSTFR.1080p.WEB-DL.DD5.1.H264-ARK01 ↓↓↓
 
Seeders 1505 Leechers 8 Téléchargements 18242
 
Télécharger Dire merci! Signaler
Voir la liste des membres qui vous remercient
↑↑↑ The.Walking.Dead.S07E06.VOSTFR.1080p.WEB-DL.DD5.1.H264-ARK01 ↑↑↑

Informations

Nom The.Walking.Dead.S07E06.VOSTFR.1080p.WEB-DL.DD5.1.H264-ARK01
Torrent The.Walking.Dead.S07E06.VOSTFR.1080p.WEB-DL.DD5.1.H264-ARK01.mkv.torrent
Catégorie Série TV
Taille totale 1.96 GB
Info Hash 274a6cf0f601c644669e60c5df3457e0f7274017
Uploadé par Arkhos01
Uploadé le 2017-01-11 15:29:58 (+00:00)
Visites 6754
évaluation 5/5 (34 votes)

Liste des Fichiers

Path Size
The.Walking.Dead.S07E06.VOSTFR.1080p.WEB-DL.DD5.1.H264-ARK01.mkv 1.96 GB

Voir le NFO

General
Complete name               : The.Walking.Dead.S07E06.VOSTFR.1080p.WEB-DL.DD5.1.H264-ARK01.mkv
Format                      : Matroska
Format version              : Version 4 / Version 2
File size                   : 1.96 GiB
Duration                    : 50mn 0s
Overall bit rate            : 5 599 Kbps
Encoded date                : UTC 2016-11-28 09:38:47
Writing application         : mkvmerge v8.3.0 ('Over the Horizon') 64bit
Writing library             : libebml v1.3.1 + libmatroska v1.4.2

Video
ID                          : 1
Format                      : AVC
Format/Info                 : Advanced Video Codec
Format profile              : [email protected]
Format settings, CABAC      : Yes
Format settings, ReFrames   : 4 frames
Codec ID                    : V_MPEG4/ISO/AVC
Duration                    : 50mn 0s
Bit rate                    : 5 103 Kbps
Width                       : 1 916 pixels
Height                      : 1 076 pixels
Display aspect ratio        : 16:9
Frame rate mode             : Constant
Frame rate                  : 23.976 fps
Color space                 : YUV
Chroma subsampling          : 4:2:0
Bit depth                   : 8 bits
Scan type                   : Progressive
Bits/(Pixel*Frame)          : 0.103
Stream size                 : 1.78 GiB (91%)
Language                    : English
Default                     : Yes
Forced                      : No
Color range                 : Limited
Color primaries             : BT.709
Transfer characteristics    : BT.709
Matrix coefficients         : BT.709

Audio
ID                          : 2
Format                      : AC-3
Format/Info                 : Audio Coding 3
Mode extension              : CM (complete main)
Format settings, Endianness : Big
Codec ID                    : A_AC3
Duration                    : 50mn 0s
Bit rate mode               : Constant
Bit rate                    : 384 Kbps
Channel(s)                  : 6 channels
Channel positions           : Front: L C R, Side: L R, LFE
Sampling rate               : 48.0 KHz
Compression mode            : Lossy
Stream size                 : 137 MiB (7%)
Language                    : English
Default                     : Yes
Forced                      : No

Text #1
ID                          : 3
Format                      : UTF-8
Codec ID                    : S_TEXT/UTF8
Codec ID/Info               : UTF-8 Plain Text
Language                    : French
Default                     : Yes
Forced                      : No

Text #2
ID                          : 4
Format                      : UTF-8
Codec ID                    : S_TEXT/UTF8
Codec ID/Info               : UTF-8 Plain Text
Language                    : English
Default                     : No
Forced                      : No

Sources : RBG - DVDRip Z2 sous-titres.eu

Ajouter un commentaire

AlainF63 ↑ 38.83 GB ↓ 22.67 GB Ratio: 1,71

merci ,super bon film

umera ↑ 13.16 GB ↓ 10.51 GB Ratio: 1,25

super merci, on adore

umera ↑ 13.16 GB ↓ 10.51 GB Ratio: 1,25

super merci, on adore

Sarah16098 ↑ 10.03 GB ↓ 6.9 GB Ratio: 1,45

Merci beaucoup

Sarah16098 ↑ 10.03 GB ↓ 6.9 GB Ratio: 1,45

Merci beaucoup

Sarah16098 ↑ 10.03 GB ↓ 6.9 GB Ratio: 1,45

Merci beaucoup

Sarah16098 ↑ 10.03 GB ↓ 6.9 GB Ratio: 1,45

Merci beaucoup

lmnu ↑ 140.1 GB ↓ 15.49 GB Ratio: 9,04

Un grand merci

ElCrouel ↑ 1.55 TB ↓ 1.02 TB Ratio: 1,52

MErci. Une idée de la dispo des épisodes 8 9 etc?

neflaxe ↑ 10 GB ↓ 24.41 GB Ratio: 0,40

Pourquoi je me retrouve avec une qualité dvdrip en prenant du 1080p? o0

janoskisb ↑ 251.7 GB ↓ 252.94 GB Ratio: 0,99

merci beaucoup !!!!!!!!!

meroso ↑ 44.36 TB ↓ 8.15 TB Ratio: 5,44

Un grand merci ,

Il me manquait justement l'episode 5 et 6

 
Loading...