Torrent

The.Walking.Dead.S07E05.VOSTFR.1080p.WEB-DL.DD5.1.H264-ARK01 URL Raccourcie


The Walking Dead S07E05 VOSTFR 1080p





Origine de la série : Américaine
Réalisateur(s) : Frank Darabont
Acteurs : Andrew Lincoln, Steven Yeun, Chandler Riggs
Genre : Drame, Epouvante-horreur
Note : 4.5
Fiche allociné : The Walking Dead



Après une apocalypse ayant transformé la quasi-totalité de la population en zombies, un groupe d'hommes et de femmes mené par l'officier Rick Grimes tente de survivre... Ensemble, ils vont devoir tant bien que mal faire face à ce nouveau monde devenu méconnaissable, à travers leur périple dans le Sud profond des États-Unis.



Qualité : WEB-DL 1080p
Format : MKV
Langue :
Sous-titres : Officiels +
Codec vidéo : H264
Codec audio : AC3 5.1

.:: Release ::.
The.Walking.Dead.S07E05.VOSTFR.1080p.WEB-DL.DD5.1.H264-ARK01


Total du post : 1.74 Go


LIENS DE TÉLÉCHARGEMENT

Télécharger The.Walking.Dead.S07E05.VOSTFR.1080p.WEB-DL.DD5.1.H264-ARK01 URL Raccourcie gratuitement

Cliquez ici pour télécharger la version FRANCAISE



TÉLÉCHARGER The.Walking.Dead.S07E05.VOSTFR.1080p.WEB-DL.DD5.1.H264-ARK01 AVEC USENET (ANONYME&RAPIDE) 14 jours gratuits

↓↓↓ The.Walking.Dead.S07E05.VOSTFR.1080p.WEB-DL.DD5.1.H264-ARK01 ↓↓↓
 
Seeders 1266 Leechers 1 Téléchargements 17298
 
Télécharger Dire merci! Signaler
Voir la liste des membres qui vous remercient
↑↑↑ The.Walking.Dead.S07E05.VOSTFR.1080p.WEB-DL.DD5.1.H264-ARK01 ↑↑↑

Informations

Nom The.Walking.Dead.S07E05.VOSTFR.1080p.WEB-DL.DD5.1.H264-ARK01
Torrent The.Walking.Dead.S07E05.VOSTFR.1080p.WEB-DL.DD5.1.H264-ARK01.mkv.torrent
Catégorie Série TV
Taille totale 1.75 GB
Info Hash 5fc506c1b03afb2030d1e6996a28c1cec769ea63
Uploadé par Arkhos01
Uploadé le 2017-01-11 15:29:22 (+00:00)
Visites 6094
évaluation 5/5 (37 votes)

Liste des Fichiers

Path Size
The.Walking.Dead.S07E05.VOSTFR.1080p.WEB-DL.DD5.1.H264-ARK01.mkv 1.75 GB

Voir le NFO

General
Complete name               : The.Walking.Dead.S07E05.VOSTFR.1080p.WEB-DL.DD5.1.H264-ARK01.mkv
Format                      : Matroska
Format version              : Version 4 / Version 2
File size                   : 1.75 GiB
Duration                    : 44mn 22s
Overall bit rate            : 5 638 Kbps
Encoded date                : UTC 2016-11-21 09:34:37
Writing application         : mkvmerge v8.3.0 ('Over the Horizon') 64bit
Writing library             : libebml v1.3.1 + libmatroska v1.4.2

Video
ID                          : 1
Format                      : AVC
Format/Info                 : Advanced Video Codec
Format profile              : [email protected]
Format settings, CABAC      : Yes
Format settings, ReFrames   : 4 frames
Codec ID                    : V_MPEG4/ISO/AVC
Duration                    : 44mn 22s
Bit rate                    : 5 142 Kbps
Width                       : 1 916 pixels
Height                      : 1 076 pixels
Display aspect ratio        : 16:9
Frame rate mode             : Constant
Frame rate                  : 23.976 fps
Color space                 : YUV
Chroma subsampling          : 4:2:0
Bit depth                   : 8 bits
Scan type                   : Progressive
Bits/(Pixel*Frame)          : 0.104
Stream size                 : 1.59 GiB (91%)
Language                    : English
Default                     : Yes
Forced                      : No
Color range                 : Limited
Color primaries             : BT.709
Transfer characteristics    : BT.709
Matrix coefficients         : BT.709

Audio
ID                          : 2
Format                      : AC-3
Format/Info                 : Audio Coding 3
Mode extension              : CM (complete main)
Format settings, Endianness : Big
Codec ID                    : A_AC3
Duration                    : 44mn 22s
Bit rate mode               : Constant
Bit rate                    : 384 Kbps
Channel(s)                  : 6 channels
Channel positions           : Front: L C R, Side: L R, LFE
Sampling rate               : 48.0 KHz
Compression mode            : Lossy
Stream size                 : 122 MiB (7%)
Language                    : English
Default                     : Yes
Forced                      : No

Text #1
ID                          : 3
Format                      : UTF-8
Codec ID                    : S_TEXT/UTF8
Codec ID/Info               : UTF-8 Plain Text
Language                    : French
Default                     : Yes
Forced                      : No

Text #2
ID                          : 4
Format                      : UTF-8
Codec ID                    : S_TEXT/UTF8
Codec ID/Info               : UTF-8 Plain Text
Language                    : English
Default                     : No
Forced                      : No

Sources : RBG - DVDRip Z2 sous-titres.eu

Ajouter un commentaire

pastille290581 ↑ 2.33 TB ↓ 2.09 TB Ratio: 1,11

Bonne qualité image et audio, sous titres nikel, merci bcp !!!

Macoupc ↑ 1.07 TB ↓ 630.18 GB Ratio: 1,73

Putain mais tue-le ce fuckin Negan !!!!!!

_____
Mac Mini 2011 2,5ghz i5 8go RAM carte graphique 256mo - Mac OS X YOSEMITE - client torrent Transmission 2.92

Simonlucile ↑ 1008.58 GB ↓ 899.51 GB Ratio: 1,12

Bonjour, Pour info : chez moi le telechargement ne veut pas se lancer. Je dl le torrent mais le dl de l'épisode ne démarre pas sous Bittorrent. A suivre. Merci

 
Loading...