Torrent

The Man Who Knew Infinity (2015) MULTI FRENCH 1080p HDlight x264-SVR (L'Homme qui défiait l'infini) URL Raccourcie










Origine : Grande-Bretagne
Réalisateur : Matt Brown
Acteurs : Dev Patel, Jeremy Irons, Toby Jones, Stephen Fry, Jeremy Northam
Genre : Biopic, Drame
Durée : 1h 49min
Année de production : 1h 49min
Titre original : The Man Who Knew Infinity
Bande annonce : 19567855



La vie de Srinivasa Ramanujan, un des plus grands mathématiciens de notre temps. Élevé à Madras en Inde, il intègre la prestigieuse université de Cambridge en Angleterre pendant la Première Guerre mondiale et y développe de nombreuses théories mathématiques sous l'égide de son professeur G.H. Hardy.






Qualité : HDlight 1080p
Format : MKV
Langue : True French, Anglais
Sous-titre : True French
Codec vidéo : x264 2pass
Codec audio : AC3 448kbps

LIENS DE TÉLÉCHARGEMENT

Télécharger The Man Who Knew Infinity (2015) MULTI FRENCH 1080p HDlight x264-SVR (L'Homme qui défiait l'infini) URL Raccourcie gratuitement

Cliquez ici pour télécharger la version FRANCAISE
PUB



TÉLÉCHARGER The Man Who Knew Infinity (2015) MULTI FRENCH 1080p HDlight x264-SVR (L'Homme qui défiait l'infini) AVEC USENET (ANONYME&RAPIDE) 14 jours gratuits

PUB

↓↓↓ The Man Who Knew Infinity (2015) MULTI FRENCH 1080p HDlight x264-SVR (L'Homme qui défiait l'infini) ↓↓↓
 
Seeders 2081 Leechers 8 Téléchargements 8680
 
Télécharger Dire merci! Signaler
Voir la liste des membres qui vous remercient
↑↑↑ The Man Who Knew Infinity (2015) MULTI FRENCH 1080p HDlight x264-SVR (L'Homme qui défiait l'infini) ↑↑↑

Informations

Nom The Man Who Knew Infinity (2015) MULTI FRENCH 1080p HDlight x264-SVR (L'Homme qui défiait l'infini)
Torrent The.Man.Who.Knew.Infinity.2015.MULTI.FRENCH.1080p.HDlight.x264-SVR.mkv.torrent
Catégorie Film
Taille totale 2.58 GB
Info Hash 112ec3c226b6b06dd3bc145c0834ac3c4a59ea9d
Uploadé par savior1377
Uploadé le 2017-03-01 21:34:45 (+00:00)
Visites 7670
évaluation 4.9/5 (74 votes)

Liste des Fichiers

Path Size
The.Man.Who.Knew.Infinity.2015.MULTI.FRENCH.1080p.HDlight.x264-SVR.mkv 2.58 GB

Voir le NFO

General
Complete name                            : The.Man.Who.Knew.Infinity.2015.MULTI.FRENCH.1080p.HDlight.x264-SVR.mkv
Format                                   : Matroska
Format version                           : Version 2
File size                                : 2.58 GiB
Duration                                 : 1 h 48 min
Overall bit rate                         : 3 396 kb/s
Encoded date                             : UTC 2017-02-25 06:52:06
Writing application                      : mkvmerge v5.6.0 ('Kenya Kane') built on May 28 2012 06:47:39
Writing library                          : libebml v1.2.2 + libmatroska v1.3.0

Video
ID                                       : 2
Format                                   : AVC
Format/Info                              : Advanced Video Codec
Format profile                           : [email protected]
Format settings, CABAC                   : Yes
Format settings, ReFrames                : 4 frames
Muxing mode                              : Header stripping
Codec ID                                 : V_MPEG4/ISO/AVC
Duration                                 : 1 h 48 min
Bit rate                                 : 2 500 kb/s
Width                                    : 1 920 pixels
Height                                   : 808 pixels
Display aspect ratio                     : 2.40:1
Frame rate mode                          : Constant
Frame rate                               : 24.000 FPS
Color space                              : YUV
Chroma subsampling                       : 4:2:0
Bit depth                                : 8 bits
Scan type                                : Progressive
Bits/(Pixel*Frame)                       : 0.067
Stream size                              : 1.85 GiB (72%)
Writing library                          : x264 core 148 r2597M e86f3a1
Encoding settings                        : cabac=1 / ref=4 / deblock=1:-1:-1 / analyse=0x3:0x113 / me=umh / subme=9 / psy=1 / psy_rd=1.00:0.15 / mixed_ref=1 / me_range=24 / chroma_me=1 / trellis=2 / 8x8dct=1 / cqm=0 / deadzone=21,11 / fast_pskip=1 / chroma_qp_offset=-3 / threads=32 / lookahead_threads=4 / sliced_threads=0 / nr=0 / decimate=1 / interlaced=0 / bluray_compat=0 / constrained_intra=0 / bframes=3 / b_pyramid=2 / b_adapt=2 / b_bias=0 / direct=3 / weightb=1 / open_gop=0 / weightp=2 / keyint=250 / keyint_min=25 / scenecut=40 / intra_refresh=0 / rc_lookahead=50 / rc=2pass / mbtree=1 / bitrate=2500 / ratetol=1.0 / qcomp=0.60 / qpmin=0 / qpmax=69 / qpstep=4 / cplxblur=20.0 / qblur=0.5 / vbv_maxrate=31250 / vbv_bufsize=31250 / nal_hrd=none / filler=0 / ip_ratio=1.40 / aq=3:1.00
Language                                 : English
Default                                  : Yes
Forced                                   : No

Audio #1
ID                                       : 3
Format                                   : AC-3
Format/Info                              : Audio Coding 3
Mode extension                           : CM (complete main)
Format settings, Endianness              : Big
Muxing mode                              : Header stripping
Codec ID                                 : A_AC3
Duration                                 : 1 h 48 min
Bit rate mode                            : Constant
Bit rate                                 : 448 kb/s
Channel(s)                               : 6 channels
Channel positions                        : Front: L C R, Side: L R, LFE
Sampling rate                            : 48.0 kHz
Frame rate                               : 31.250 FPS (1536 spf)
Bit depth                                : 16 bits
Compression mode                         : Lossy
Stream size                              : 348 MiB (13%)
Title                                    : VFF
Language                                 : French
Default                                  : Yes
Forced                                   : No

Audio #2
ID                                       : 4
Format                                   : AC-3
Format/Info                              : Audio Coding 3
Mode extension                           : CM (complete main)
Format settings, Endianness              : Big
Muxing mode                              : Header stripping
Codec ID                                 : A_AC3
Duration                                 : 1 h 48 min
Bit rate mode                            : Constant
Bit rate                                 : 448 kb/s
Channel(s)                               : 6 channels
Channel positions                        : Front: L C R, Side: L R, LFE
Sampling rate                            : 48.0 kHz
Frame rate                               : 31.250 FPS (1536 spf)
Bit depth                                : 16 bits
Compression mode                         : Lossy
Stream size                              : 348 MiB (13%)
Title                                    : ENG
Language                                 : English
Default                                  : No
Forced                                   : No

Text #1
ID                                       : 1
Format                                   : UTF-8
Codec ID                                 : S_TEXT/UTF8
Codec ID/Info                            : UTF-8 Plain Text
Title                                    : FR Forcé
Default                                  : Yes
Forced                                   : Yes

Text #2
ID                                       : 5
Format                                   : UTF-8
Codec ID                                 : S_TEXT/UTF8
Codec ID/Info                            : UTF-8 Plain Text
Title                                    : FULL FR
Default                                  : No
Forced                                   : No

Text #3
ID                                       : 6
Format                                   : UTF-8
Codec ID                                 : S_TEXT/UTF8
Codec ID/Info                            : UTF-8 Plain Text
Title                                    : FULL
Language                                 : English
Default                                  : No
Forced                                   : No


Ajouter un commentaire

Nani13100 ↑ 1.73 TB ↓ 164.87 GB Ratio: 10,75

Film "intello" plus frustrant que réjouissant. Je m'attendais à un successeur de Will Hunting, mais me suis un peu ennuyé.

senseii ↑ 1.71 TB ↓ 1.25 TB Ratio: 1,36

très bon film merci pour le partage.

marseille1322 ↑ 1.09 TB ↓ 756.35 GB Ratio: 1,47

merci

sarati ↑ 3.07 TB ↓ 2.75 TB Ratio: 1,11

les commentaires sont bon donc bon films et merci

sarati ↑ 3.07 TB ↓ 2.75 TB Ratio: 1,11

les commentaires sont bon donc bon films et merci

sarati ↑ 3.07 TB ↓ 2.75 TB Ratio: 1,11

les commentaires sont bon donc bon films et merci

remannie ↑ 12.15 GB ↓ 13.29 GB Ratio: 0,91

merci, on m en a dit beaucoup de bien;

huzuu ↑ 13.15 TB ↓ 3.09 TB Ratio: 4,25

ce film ma surpris. j'ai bien aiméé

fornlike ↑ 968.37 GB ↓ 707.5 GB Ratio: 1,36

Génial! Je vais me régaler. J'ai entendu parlé de ce grand esprit dans le super film avec Matt Damon: Will Hunting. Merci beaucoup messieurs.

jessouw1012 ↑ 510.13 GB ↓ 441.02 GB Ratio: 1,15

magnifique a voir

 
Loading...