Torrent

The.Big.Bang.Theory.S10E18.FASTSUB.VOSTFR.720p.HDTV.x264-ARK01 URL Raccourcie

The Big Bang Theory S10E18 VOSTFR 720p





Origine de la série : Américaine
Réalisateur(s) : Bill Prady
Acteurs : Jim Parsons, Johnny Galecki, Kaley Cuoco-Sweeting
Genre : Comédie
Note : 4.2
Fiche allociné : The Big Bang Theory



Leonard et Sheldon pourraient vous dire tout ce que vous voudriez savoir à propos de la physique quantique. Mais ils seraient bien incapables de vous expliquer quoi que ce soit sur la vie "réelle", le quotidien ou les relations humaines... Mais tout va changer avec l'arrivée de la superbe Penny, leur voisine. Ce petit bout de femme, actrice à ses heures et serveuse pour le beurre, va devenir leur professeur de vie !



Qualité : HDTV 720p
Format : MKV
Langue :
Sous-titres :
Codec vidéo : x264
Codec audio : AC3 5.1

.:: Release ::.
The.Big.Bang.Theory.S10E18.FASTSUB.VOSTFR.720p.HDTV.x264-ARK01


Total du post : 372 Mo


LIENS DE TÉLÉCHARGEMENT

Télécharger The.Big.Bang.Theory.S10E18.FASTSUB.VOSTFR.720p.HDTV.x264-ARK01 URL Raccourcie gratuitement

Cliquez ici pour télécharger la version FRANCAISE
PUB



TÉLÉCHARGER The.Big.Bang.Theory.S10E18.FASTSUB.VOSTFR.720p.HDTV.x264-ARK01 AVEC USENET (ANONYME&RAPIDE) 14 jours gratuits

PUB

↓↓↓ The.Big.Bang.Theory.S10E18.FASTSUB.VOSTFR.720p.HDTV.x264-ARK01 ↓↓↓
 
Seeders 1248 Leechers 0 Téléchargements 4532
 
Télécharger Dire merci! Signaler
Voir la liste des membres qui vous remercient
↑↑↑ The.Big.Bang.Theory.S10E18.FASTSUB.VOSTFR.720p.HDTV.x264-ARK01 ↑↑↑

Informations

Nom The.Big.Bang.Theory.S10E18.FASTSUB.VOSTFR.720p.HDTV.x264-ARK01
Torrent The.Big.Bang.Theory.S10E18.FASTSUB.VOSTFR.720p.HDTV.x264-ARK01.mkv.torrent
Catégorie Série TV
Taille totale 372.07 MB
Info Hash 01f0c78e077cd21c1849a0a03dde2c5485bbf6ae
Uploadé par Arkhos01
Uploadé le 2017-03-10 13:37:31 (+00:00)
Visites 5073
évaluation 4.9/5 (49 votes)

Liste des Fichiers

Path Size
The.Big.Bang.Theory.S10E18.FASTSUB.VOSTFR.720p.HDTV.x264-ARK01.mkv 372.07 MB

Voir le NFO

General
Complete name                            : The.Big.Bang.Theory.S10E18.FASTSUB.VOSTFR.720p.HDTV.x264-ARK01.mkv
Format                                   : Matroska
Format version                           : Version 4 / Version 2
File size                                : 372 MiB
Duration                                 : 20mn 0s
Overall bit rate                         : 2 599 Kbps
Encoded date                             : UTC 2017-03-10 13:30:31
Writing application                      : mkvmerge v8.3.0 ('Over the Horizon') 64bit
Writing library                          : libebml v1.3.1 + libmatroska v1.4.2

Video
ID                                       : 1
Format                                   : AVC
Format/Info                              : Advanced Video Codec
Format profile                           : [email protected]
Format settings, CABAC                   : Yes
Format settings, ReFrames                : 9 frames
Codec ID                                 : V_MPEG4/ISO/AVC
Duration                                 : 20mn 0s
Bit rate                                 : 2 164 Kbps
Width                                    : 1 280 pixels
Height                                   : 720 pixels
Display aspect ratio                     : 16:9
Frame rate mode                          : Constant
Frame rate                               : 23.976 fps
Color space                              : YUV
Chroma subsampling                       : 4:2:0
Bit depth                                : 8 bits
Scan type                                : Progressive
Bits/(Pixel*Frame)                       : 0.098
Stream size                              : 310 MiB (83%)
Writing library                          : x264 core 148 r2762 90a61ec
Language                                 : English
Default                                  : Yes
Forced                                   : No
Color range                              : Limited
Matrix coefficients                      : BT.709

Audio
ID                                       : 2
Format                                   : AC-3
Format/Info                              : Audio Coding 3
Mode extension                           : CM (complete main)
Format settings, Endianness              : Big
Codec ID                                 : A_AC3
Duration                                 : 20mn 0s
Bit rate mode                            : Constant
Bit rate                                 : 384 Kbps
Channel(s)                               : 6 channels
Channel positions                        : Front: L C R, Side: L R, LFE
Sampling rate                            : 48.0 KHz
Compression mode                         : Lossy
Stream size                              : 55.0 MiB (15%)
Language                                 : English
Default                                  : Yes
Forced                                   : No

Text #1
ID                                       : 3
Format                                   : UTF-8
Codec ID                                 : S_TEXT/UTF8
Codec ID/Info                            : UTF-8 Plain Text
Language                                 : French
Default                                  : Yes
Forced                                   : No

Text #2
ID                                       : 4
Format                                   : UTF-8
Codec ID                                 : S_TEXT/UTF8
Codec ID/Info                            : UTF-8 Plain Text
Language                                 : English
Default                                  : No
Forced                                   : No

Sources : DIMENSION - Addic7ed

Ajouter un commentaire

marlena ↑ 6.37 TB ↓ 3.78 TB Ratio: 1,68

881steph ↑ 1.6 TB ↓ 319.76 GB Ratio: 5,12

Super, merci beaucoup !

 
Loading...