Torrent

The.100.S04E01.FASTSUB.VOSTFR.HDTV.XviD-Winchester URL Raccourcie


Saison 4 - Episode 1



Après une apocalypse nucléaire causée par l'Homme lors d'une troisième Guerre Mondiale, les 318 survivants recensés se réfugient dans des stations spatiales et parviennent à y vivre et à se reproduire, atteignant le nombre de 4000. Mais 97 ans plus tard, le vaisseau mère, l'Arche, est en piteux état. Une centaine de jeunes délinquants emprisonnés au fil des années pour des crimes ou des trahisons sont choisis comme cobayes par les autorités pour redescendre sur Terre et tester les chances de survie. Dès leur arrivée, ils découvrent un nouveau monde dangereux mais fascinant...

Episode: 20/20
Qualité: HDTV
Format: XviD
Voix:

Sous-titres:

Taille: 348 Mo
Encodeur: Winchester

LIENS DE TÉLÉCHARGEMENT

Télécharger The.100.S04E01.FASTSUB.VOSTFR.HDTV.XviD-Winchester URL Raccourcie gratuitement

Cliquez ici pour télécharger la version FRANCAISE



TÉLÉCHARGER The.100.S04E01.FASTSUB.VOSTFR.HDTV.XviD-Winchester AVEC USENET (ANONYME&RAPIDE) 14 jours gratuits

↓↓↓ The.100.S04E01.FASTSUB.VOSTFR.HDTV.XviD-Winchester ↓↓↓
 
Seeders 0 Leechers 5 Téléchargements 10
 
Télécharger Dire merci! Signaler
Voir la liste des membres qui vous remercient
↑↑↑ The.100.S04E01.FASTSUB.VOSTFR.HDTV.XviD-Winchester ↑↑↑

Informations

Nom The.100.S04E01.FASTSUB.VOSTFR.HDTV.XviD-Winchester
Torrent The.100.S04E01.FASTSUB.VOSTFR.HDTV.XviD-Winchester.avi.torrent
Catégorie Série TV
Taille totale 347.97 MB
Info Hash 55d95af05119fceeb6fde2d46bead38269adc7e0
Uploadé par MasterDex
Uploadé le 2017-02-02 14:57:57 (+00:00)
Visites 1071
évaluation 4.9/5 (14 votes)

Liste des Fichiers

Path Size
The.100.S04E01.FASTSUB.VOSTFR.HDTV.XviD-Winchester.avi 347.97 MB

Voir le NFO

General
Complete name                            : The.100.S04E01.FASTSUB.VOSTFR.HDTV.XviD-Winchester.avi
Format                                   : AVI
Format/Info                              : Audio Video Interleave
File size                                : 348 MiB
Duration                                 : 40 min
Overall bit rate                         : 1 188 kb/s

Video
ID                                       : 0
Format                                   : MPEG-4 Visual
Format profile                           : [email protected]
Format settings, BVOP                    : No
Format settings, QPel                    : No
Format settings, GMC                     : No warppoints
Format settings, Matrix                  : Default (H.263)
Codec ID                                 : XVID
Codec ID/Hint                            : XviD
Duration                                 : 40 min
Bit rate                                 : 1 043 kb/s
Width                                    : 624 pixels
Height                                   : 352 pixels
Display aspect ratio                     : 16:9
Frame rate                               : 23.976 FPS
Original frame rate                      : 23.000 FPS
Color space                              : YUV
Chroma subsampling                       : 4:2:0
Bit depth                                : 8 bits
Scan type                                : Progressive
Compression mode                         : Lossy
Bits/(Pixel*Frame)                       : 0.198
Stream size                              : 306 MiB (88%)
Writing library                          : XviD 1.2.1 (UTC 2008-12-04)

Audio
ID                                       : 1
Format                                   : MPEG Audio
Format version                           : Version 1
Format profile                           : Layer 3
Mode                                     : Joint stereo
Mode extension                           : MS Stereo
Codec ID                                 : 55
Codec ID/Hint                            : MP3
Duration                                 : 40 min
Bit rate mode                            : Constant
Bit rate                                 : 128 kb/s
Channel(s)                               : 2 channels
Sampling rate                            : 48.0 kHz
Compression mode                         : Lossy
Stream size                              : 37.5 MiB (11%)
Alignment                                : Aligned on interleaves
Interleave, duration                     : 24  ms (0.58 video frame)
Writing library                          : LAME3.98

Ajouter un commentaire

fififred ↑ 22.82 GB ↓ 21.14 GB Ratio: 1,07

Quelqu'un a réussi à télécharger ? Moi le fichier n'a pas bougé depuis 4 jours et rien télécharger du tout Merci d'avance pour un message !

Psychomama ↑ 761.85 GB ↓ 261.73 GB Ratio: 2,91

Merci pour le partage mais le fichier ne se télécharge pas (2 jours de tentatives) :/

Bonne continuation pour les prochains Uploads
Présentation propre !

A force de lever les yeux au ciel, on marche dans la merde.

ABBA © ↑ 87.62 TB ↓ 21.27 TB Ratio: 4,11

Torrent Ok!
Merci pour ta participation! Bon download aux autres.
N'oubliez pas de remercier! Les uploadeurs travaillent pour vous et assurent ainsi la diversité des fichiers sur t411.
Un merci, un commentaire et rester en seed, ça fait plaisir à l'uploader.

 
Loading...