Torrent

Sweet.Sixteen.2002.PAL.MULTi.DVDR 720x576 URL Raccourcie


(¯`·._.·[ Sweet Sixteen ]·._.·´¯







Titre original : Sweet Sixteen
Année de production : 2002
Réalisateur : Ken Loach
Durée : 1h46
[Acteurs : Martin Compston, William Ruane, Annmarie Fulton, Michelle Abercromby, Michelle Coulter, Gary McCormack,...Tommy McKee, Calum McAlees, Robert Rennie, George McNeilage, Rikki Traynor, Jon Morrison, Junior Walker, Gary Maitland, Scott Dymond, Mark Dallas, Stephen McGivern, Robert Harrison, Martin McCardie, Robert Muir
Genre : Drame
Date de sortie : 11 Décembre 2002
Pays de production : Angleterre

Bande annonce : Aucune bande annonce disponible ...



Liam va avoir 16 ans et sa mère, Jean, doit sortir de prison. Pour elle et sa soeur Chanterelle, il rêve d'un foyer sûr, loin de l'influence de son grand père et du compagnon de Jean. Mais il lui faut trouver de l'argent. Avec ses copains, Liam enchaîne les combines douteuses et, rapidement, les ennuis commencent...



Hébergeur :
Qualité : DVD-R PAL
Format : M-PEG
Langue :
Sous-titre :
Découper avec : Aucun
Nombre et taille des fichiers 1 X 6600 Mo

Total du post : 6600 Mo


LIENS DE TÉLÉCHARGEMENT

Télécharger Sweet.Sixteen.2002.PAL.MULTi.DVDR 720x576 URL Raccourcie gratuitement

Cliquez ici pour télécharger la version FRANCAISE



TÉLÉCHARGER Sweet.Sixteen.2002.PAL.MULTi.DVDR 720x576 AVEC USENET (ANONYME&RAPIDE) 14 jours gratuits

↓↓↓ Sweet.Sixteen.2002.PAL.MULTi.DVDR 720x576 ↓↓↓
 
Seeders 1 Leechers 3 Téléchargements 76
 
Télécharger Dire merci! Signaler
Voir la liste des membres qui vous remercient
↑↑↑ Sweet.Sixteen.2002.PAL.MULTi.DVDR 720x576 ↑↑↑

Informations

Nom Sweet.Sixteen.2002.PAL.MULTi.DVDR 720x576
Torrent Sweet Sixteen.mpeg.torrent
Catégorie Film
Taille totale 6.67 GB
Info Hash cb176ca41fd3c645c799f515193e777a2c3373f2
Uploadé par chris664
Uploadé le 2013-01-29 16:11:25 (+00:00)
Visites 523
évaluation 4.6/5 (5 votes)

Liste des Fichiers

Path Size
Sweet Sixteen.mpeg 6.67 GB

Voir le NFO

General
Complete name                            : Sweet Sixteen.mpg
Format                                   : MPEG-PS
File size                                : 6.67 GiB
Duration                                 : 1h 41mn
Overall bit rate mode                    : Variable
Overall bit rate                         : 9 400 Kbps

Video
ID                                       : 224 (0xE0)
Format                                   : MPEG Video
Format version                           : Version 2
Format profile                           : [email protected]
Format settings, BVOP                    : Yes
Format settings, Matrix                  : Custom
Format settings, GOP                     : M=3, N=12
Duration                                 : 1h 41mn
Bit rate mode                            : Variable
Bit rate                                 : 7 933 Kbps
Maximum bit rate                         : 8 100 Kbps
Width                                    : 720 pixels
Height                                   : 576 pixels
Display aspect ratio                     : 2.40:1
Frame rate                               : 25.000 fps
Standard                                 : PAL
Color space                              : YUV
Chroma subsampling                       : 4:2:0
Bit depth                                : 8 bits
Scan type                                : Interlaced
Scan order                               : Top Field First
Compression mode                         : Lossy
Bits/(Pixel*Frame)                       : 0.765
Stream size                              : 5.63 GiB (84%)

Audio #1
ID                                       : 189 (0xBD)-128 (0x80)
Format                                   : AC-3
Format/Info                              : Audio Coding 3
Mode extension                           : CM (complete main)
Format settings, Endianness              : Big
Muxing mode                              : DVD-Video
Duration                                 : 1h 41mn
Bit rate mode                            : Constant
Bit rate                                 : 192 Kbps
Channel(s)                               : 2 channels
Channel positions                        : Front: L R
Sampling rate                            : 48.0 KHz
Bit depth                                : 16 bits
Compression mode                         : Lossy
Stream size                              : 140 MiB (2%)

Audio #2
ID                                       : 189 (0xBD)-129 (0x81)
Format                                   : AC-3
Format/Info                              : Audio Coding 3
Mode extension                           : CM (complete main)
Format settings, Endianness              : Big
Muxing mode                              : DVD-Video
Duration                                 : 1h 41mn
Bit rate mode                            : Constant
Bit rate                                 : 448 Kbps
Channel(s)                               : 6 channels
Channel positions                        : Front: L C R, Side: L R, LFE
Sampling rate                            : 48.0 KHz
Bit depth                                : 16 bits
Compression mode                         : Lossy
Stream size                              : 326 MiB (5%)

Audio #3
ID                                       : 189 (0xBD)-130 (0x82)
Format                                   : AC-3
Format/Info                              : Audio Coding 3
Mode extension                           : CM (complete main)
Format settings, Endianness              : Big
Muxing mode                              : DVD-Video
Duration                                 : 1h 41mn
Bit rate mode                            : Constant
Bit rate                                 : 448 Kbps
Channel(s)                               : 6 channels
Channel positions                        : Front: L C R, Side: L R, LFE
Sampling rate                            : 48.0 KHz
Bit depth                                : 16 bits
Compression mode                         : Lossy
Stream size                              : 326 MiB (5%)

Audio #4
ID                                       : 189 (0xBD)-131 (0x83)
Format                                   : AC-3
Format/Info                              : Audio Coding 3
Mode extension                           : CM (complete main)
Format settings, Endianness              : Big
Muxing mode                              : DVD-Video
Duration                                 : 1h 41mn
Bit rate mode                            : Constant
Bit rate                                 : 192 Kbps
Channel(s)                               : 2 channels
Channel positions                        : Front: L R
Sampling rate                            : 48.0 KHz
Bit depth                                : 16 bits
Compression mode                         : Lossy
Stream size                              : 140 MiB (2%)

Text #1
ID                                       : 189 (0xBD)-32 (0x20)
Format                                   : RLE
Format/Info                              : Run-length encoding
Muxing mode                              : DVD-Video

Text #2
ID                                       : 189 (0xBD)-33 (0x21)
Format                                   : RLE
Format/Info                              : Run-length encoding
Muxing mode                              : DVD-Video

Menu


General
Complete name                            :Sweet Sixteen.mpg
Format                                   : MPEG-PS
File size                                : 6.67 GiB
Duration                                 : 1h 41mn
Overall bit rate mode                    : Variable
Overall bit rate                         : 9 400 Kbps

Video
ID                                       : 224 (0xE0)
Format                                   : MPEG Video
Format version                           : Version 2
Format profile                           : [email protected]
Format settings, BVOP                    : Yes
Format settings, Matrix                  : Custom
Format settings, GOP                     : M=3, N=12
Duration                                 : 1h 41mn
Bit rate mode                            : Variable
Bit rate                                 : 7 933 Kbps
Maximum bit rate                         : 8 100 Kbps
Width                                    : 720 pixels
Height                                   : 576 pixels
Display aspect ratio                     : 2.40:1
Frame rate                               : 25.000 fps
Standard                                 : PAL
Color space                              : YUV
Chroma subsampling                       : 4:2:0
Bit depth                                : 8 bits
Scan type                                : Interlaced
Scan order                               : Top Field First
Compression mode                         : Lossy
Bits/(Pixel*Frame)                       : 0.765
Stream size                              : 5.63 GiB (84%)

Audio #1
ID                                       : 189 (0xBD)-128 (0x80)
Format                                   : AC-3
Format/Info                              : Audio Coding 3
Mode extension                           : CM (complete main)
Format settings, Endianness              : Big
Muxing mode                              : DVD-Video
Duration                                 : 1h 41mn
Bit rate mode                            : Constant
Bit rate                                 : 192 Kbps
Channel(s)                               : 2 channels
Channel positions                        : Front: L R
Sampling rate                            : 48.0 KHz
Bit depth                                : 16 bits
Compression mode                         : Lossy
Stream size                              : 140 MiB (2%)

Audio #2
ID                                       : 189 (0xBD)-129 (0x81)
Format                                   : AC-3
Format/Info                              : Audio Coding 3
Mode extension                           : CM (complete main)
Format settings, Endianness              : Big
Muxing mode                              : DVD-Video
Duration                                 : 1h 41mn
Bit rate mode                            : Constant
Bit rate                                 : 448 Kbps
Channel(s)                               : 6 channels
Channel positions                        : Front: L C R, Side: L R, LFE
Sampling rate                            : 48.0 KHz
Bit depth                                : 16 bits
Compression mode                         : Lossy
Stream size                              : 326 MiB (5%)

Audio #3
ID                                       : 189 (0xBD)-130 (0x82)
Format                                   : AC-3
Format/Info                              : Audio Coding 3
Mode extension                           : CM (complete main)
Format settings, Endianness              : Big
Muxing mode                              : DVD-Video
Duration                                 : 1h 41mn
Bit rate mode                            : Constant
Bit rate                                 : 448 Kbps
Channel(s)                               : 6 channels
Channel positions                        : Front: L C R, Side: L R, LFE
Sampling rate                            : 48.0 KHz
Bit depth                                : 16 bits
Compression mode                         : Lossy
Stream size                              : 326 MiB (5%)

Audio #4
ID                                       : 189 (0xBD)-131 (0x83)
Format                                   : AC-3
Format/Info                              : Audio Coding 3
Mode extension                           : CM (complete main)
Format settings, Endianness              : Big
Muxing mode                              : DVD-Video
Duration                                 : 1h 41mn
Bit rate mode                            : Constant
Bit rate                                 : 192 Kbps
Channel(s)                               : 2 channels
Channel positions                        : Front: L R
Sampling rate                            : 48.0 KHz
Bit depth                                : 16 bits
Compression mode                         : Lossy
Stream size                              : 140 MiB (2%)

Text #1
ID                                       : 189 (0xBD)-32 (0x20)
Format                                   : RLE
Format/Info                              : Run-length encoding
Muxing mode                              : DVD-Video

Text #2
ID                                       : 189 (0xBD)-33 (0x21)
Format                                   : RLE
Format/Info                              : Run-length encoding
Muxing mode                              : DVD-Video

Menu

Ajouter un commentaire

evey ↑ 3.85 TB ↓ 2.22 TB Ratio: 1,73

bonsoir vous avez les sous titres pour ce films ?

voulkal ↑ 3.35 TB ↓ 2.69 TB Ratio: 1,24

Super partage Merci infiniment

DVD-thèque Asia T411 : ICI

french84 Patrick, Malaga Andalousie ↑ 4.41 TB ↓ 1.8 TB Ratio: 2,44

MERCI, du très bon film


 
Loading...