Torrent

Prince Live in La Coruna 29/07/1990 URL Raccourcie


Prince Live in La Coruna 29/07/1990


Concert du 29 Juillet 1990 au Stade Santa Maria Del Mar


Prince:

Prince Rogers Nelson, né le 7 juin 1958 à Minneapolis aux États-Unis, connu sous le nom de scène Prince, est un chanteur, musicien, compositeur, réalisateur artistique, danseur et producteur américain de pop, de funk, de rock et de R&B contemporain. Il est également acteur. Il a vendu plus de 150 millions de disques dans le monde depuis 1979.

Prince en Live dans le cadre de sa tournée Nude Tour en 1990. Le Nude Tour est, la tournée de Prince qui a visité le plus de pays. Même si la précédente tournée Lovesexy Tour, a reçu des critiques élogieuses, le coût de financement a été une déception. C'est pourquoi Prince a supprimé une grande partie du matériel utilisé pour permettre moins de perte. Comme pour beaucoup d'autres tournées, Prince a choisi de ne pas faire tout le tour des États-Unis. Dans cette tournée seul quelques concerts d'échauffements se feront sur le continent et quelques autres rares dates seront ajoutées à la liste. Prince, ne vas plus faire de tour complet des États-Unis avant 1993 pendant l'Act I Tour.

Setlist:

DAT INTRO
THE FUTURE
1999
HOUSEQUAKE
SEXY DANCER
KISS
PURPLE RAIN
TAKE ME WITH U (INTRO)
TAKE ME WITH U
ALPHABET ST.
IT TAKE TWO
THE QUESTION OF U
CONTROVERSY
DO ME, BABY
AIN'T NO WAY
NOTHING COMPARES 2 U
BATDANCE
PARTYMAN
ROCK THE HOUSE
BABY I'M A STAR
RESPECT

Musiciens:

Prince : chants, guitare, piano.
Miko Weaver : guitare, chants.
Levi Seacer, Jr. : guitare, chants, basse.
Doctor Fink : claviers
Rosie Gaines : chants, orgue, claviers.
Michael Bland : chants, batterie, percussions
Tony M., Kirky J. et Damon Dickson AKA The Game Boyz : chants et danse.

Captures d'écran:




Infos vidéo:

Durée : 1h 23mn
Format : MPEG-4
Résolution : 640x480
Taille : 1.35 GiB

LIENS DE TÉLÉCHARGEMENT

Télécharger Prince Live in La Coruna 29/07/1990 URL Raccourcie gratuitement

Cliquez ici pour télécharger la version FRANCAISE



TÉLÉCHARGER Prince Live in La Coruna 29/07/1990 AVEC USENET (ANONYME&RAPIDE) 14 jours gratuits

↓↓↓ Prince Live in La Coruna 29/07/1990 ↓↓↓
 
Seeders 0 Leechers 2 Téléchargements 151
 
Télécharger Dire merci! Signaler
Voir la liste des membres qui vous remercient
↑↑↑ Prince Live in La Coruna 29/07/1990 ↑↑↑

Informations

Nom Prince Live in La Coruna 29/07/1990
Torrent prince_live_la_coruna.torrent
Catégorie Concert
Taille totale 1.35 GB
Info Hash e802d49c6e5318722e751cc7391aa6c2b57318af
Uploadé par Rimbu93
Uploadé le 2014-10-30 23:06:46 (+00:00)
Visites 1373
évaluation 4.6/5 (21 votes)

Liste des Fichiers

Path Size
prince_live_la_coruna/prince_live_la_coruna.nfo 3.81 KB
prince_live_la_coruna/Prince_Live_LaCoruna_1990_07_29.m4v 1.35 GB

Voir le NFO

General
Complete name                            : Prince_Live_LaCoruna_1990_07_29.m4v
Format                                   : MPEG-4
Format profile                           : Base Media / Version 2
Codec ID                                 : mp42
File size                                : 1.35 GiB
Duration                                 : 1h 23mn
Overall bit rate                         : 2 327 Kbps
Movie name                               : Prince Live at La Coruna 1990_07_29 
Album                                    : Prince Live at La Coruna 1990_07_29
Album/Sorted by                          : PL-1990-07
Performer                                : Prince
Recorded date                            : 1990
Encoded date                             : UTC 2010-10-25 12:14:35
Tagged date                              : UTC 2010-10-28 10:43:07
Cover                                    : Yes

Video
ID                                       : 2
Format                                   : AVC
Format/Info                              : Advanced Video Codec
Format profile                           : [email protected]
Format settings, CABAC                   : No
Format settings, ReFrames                : 2 frames
Format settings, GOP                     : M=2, N=24
Codec ID                                 : avc1
Codec ID/Info                            : Advanced Video Coding
Duration                                 : 1h 23mn
Source duration                          : 1h 23mn
Bit rate                                 : 2 065 Kbps
Width                                    : 640 pixels
Height                                   : 480 pixels
Display aspect ratio                     : 4:3
Frame rate mode                          : Constant
Frame rate                               : 24.975 fps
Color space                              : YUV
Chroma subsampling                       : 4:2:0
Bit depth                                : 8 bits
Scan type                                : Progressive
Bits/(Pixel*Frame)                       : 0.269
Stream size                              : 1.20 GiB (89%)
Source stream size                       : 1.20 GiB (89%)
Language                                 : English
Encoded date                             : UTC 2010-10-25 12:14:30
Tagged date                              : UTC 2010-10-25 12:15:49
Color primaries                          : BT.601 NTSC
Transfer characteristics                 : BT.709
Matrix coefficients                      : BT.601

Audio
ID                                       : 1
Format                                   : AAC
Format/Info                              : Advanced Audio Codec
Format profile                           : LC
Codec ID                                 : 40
Duration                                 : 1h 23mn
Source duration                          : 1h 23mn
Bit rate mode                            : Constant
Bit rate                                 : 256 Kbps
Channel(s)                               : 2 channels
Channel positions                        : Front: L R
Sampling rate                            : 48.0 KHz
Compression mode                         : Lossy
Delay relative to video                  : 40ms
Stream size                              : 152 MiB (11%)
Source stream size                       : 152 MiB (11%)
Language                                 : English
Encoded date                             : UTC 2010-10-25 12:14:30
Tagged date                              : UTC 2010-10-28 10:43:07

Menu
ID                                       : 3
Codec ID                                 : text
Duration                                 : 1h 23mn
Language                                 : English
Encoded date                             : UTC 2010-10-25 12:14:29
Tagged date                              : UTC 2010-10-25 12:14:29
Bit rate mode                            : VBR

Ajouter un commentaire

Zefram ↑ 1.06 TB ↓ 334.6 GB Ratio: 3,22

Idem chez moi impossible a télécharger.
Seed s'il vous plait
Merci

ameria

du seed please ça ne démarre pas chez moi ???

metonarnod ↑ 285.57 GB ↓ 35.83 GB Ratio: 7,97

j'aime et merci pour le partage

BlueSel8891 ↑ 1.58 TB ↓ 17.08 GB Ratio: 94,57

Merci pour le partage

cox1967 ↑ 15.58 TB ↓ 3.75 TB Ratio: 4,15

salut magnifique et merci

cox1967 ↑ 15.58 TB ↓ 3.75 TB Ratio: 4,15

salut un grand merci pour le partage

mikascot ↑ 120.28 GB ↓ 41.36 GB Ratio: 2,90

merci

theo13014 ↑ 7.29 TB ↓ 5.28 TB Ratio: 1,37

merci

Rimbu93 ↑ 172.73 GB ↓ 109.54 GB Ratio: 1,57

C'est du pro-shot et chez Prince c'est rare. Pas la peine de copier jeanlouisdu14 <O

popol57 ↑ 22.07 GB ↓ 6.87 GB Ratio: 3,21

merci pour le partage
dommage pour la qualité

guichard

Qualité vraiment médiocre, quel dommage !

milucie ↑ 6.23 TB ↓ 6.23 TB Ratio: 0,99

MERCI TRES BON SPECTACLE

jeanlouisdu14 ↑ 1.95 TB ↓ 1.16 TB Ratio: 1,69

hello, image médiocre , son bon dommage !!!

 
Loading...