Torrent

Pete's Dragon (2016) MULTi VFQ [1080p] BluRay x264-PopHD (Peter et Elliott le dragon) URL Raccourcie



Multi (VFQ-VO) - HD Light 1080p







Origine : U.S.A.
Réalisateur : David Lowery
Acteurs : Bryce Dallas Howard, Robert Redford, Oakes Fegley, Oona Laurence, Wes Bentley
Genre : Aventure, Comédie, Fantastique, Famille
Durée : 1h 43min
Date de sortie : 17 Août 2016
Année de production : 2016
Titre original : Pete's Dragon
Critiques Spectateurs : 3.9
Critiques Presses : 3.3
IMDb : 7.0
Plus d'information sur AlloCiné ou IMDb :







Depuis de longues années, M. Meacham, un vieux sculpteur sur bois, régale les enfants du coin avec ses histoires sur un féroce dragon qui vivrait au plus profond de la forêt voisine. Pour sa fille Grace, garde forestière de son état, tout ceci n’est que contes à dormir debout… jusqu’au jour où elle fait connaissance avec Peter. Ce mystérieux petit garçon de 10 ans - qui dit n’avoir ni famille ni foyer - assure qu’il vit dans les bois avec un dragon géant baptisé Elliott. Et la description qu’il en fait correspond étonnamment à celui dont parle son père… Avec l’aide de la jeune Natalie - la fille de Jack, le propriétaire de la scierie -, Grace va tout mettre en oeuvre pour découvrir qui est vraiment Peter, d’où il vient, et percer le secret de son incroyable histoire…


Bande annonce :



Ce up peut paraître léger pour un 1080p mais les options d'encodage du x264 permettent d'obtenir une qualité qui se rapproche des versions lourdes, tout en préservant votre ratio !



                           • Format :      MKV (AVC H.264 @2 650 Kbps - [email protected])

                           • Audio :        Français (VFQ) : AC3 5.1 @640 kbps
                                            Anglais        : AC3 5.1 @448 kbps

                           • Sous-titres : Français [forcés, complets & commentaires]
                                            Anglais  [complets, SDH & commentaires]


                           • Résolution : 1920x800         |    Format à l'écran :2.40

                           • Taille du fichier : 2.72 Go    |    Encodé parTonyka



popopoooooo, Abi, LotusFlower, Tonyka, itamma, Noex







Pour les BluRay FULL, REMUX ou HD régulier allez voir ICI

LIENS DE TÉLÉCHARGEMENT

Télécharger Pete's Dragon (2016) MULTi VFQ [1080p] BluRay x264-PopHD (Peter et Elliott le dragon) URL Raccourcie gratuitement

Cliquez ici pour télécharger la version FRANCAISE
PUB



TÉLÉCHARGER Pete's Dragon (2016) MULTi VFQ [1080p] BluRay x264-PopHD (Peter et Elliott le dragon) AVEC USENET (ANONYME&RAPIDE) 14 jours gratuits

PUB

↓↓↓ Pete's Dragon (2016) MULTi VFQ [1080p] BluRay x264-PopHD (Peter et Elliott le dragon) ↓↓↓
 
Seeders 2189 Leechers 126 Téléchargements 20332
 
Télécharger Dire merci! Signaler
Voir la liste des membres qui vous remercient
↑↑↑ Pete's Dragon (2016) MULTi VFQ [1080p] BluRay x264-PopHD (Peter et Elliott le dragon) ↑↑↑

Informations

Nom Pete's Dragon (2016) MULTi VFQ [1080p] BluRay x264-PopHD (Peter et Elliott le dragon)
Torrent Pete's Dragon (2016) MULTi [1080p] BluRay x264-PopHD.torrent
Catégorie Film
Taille totale 2.72 GB
Info Hash ef75f0a29859d2e34842582b82d26c5b9d918d6f
Uploadé par popopoooooo
Uploadé le 2016-11-28 23:41:26 (+00:00)
Visites 29092
évaluation 4.9/5 (267 votes)

Liste des Fichiers

Path Size
Pete's Dragon (2016) MULTi [1080p] BluRay x264-PopHD/Pete's Dragon (2016) MULTi [1080p] BluRay x264-PopHD.mkv 2.72 GB
Pete's Dragon (2016) MULTi [1080p] BluRay x264-PopHD/petes-dragon-folder-fre-tkhd.jpg 1.04 MB
Pete's Dragon (2016) MULTi [1080p] BluRay x264-PopHD/folder.jpg 1.04 MB

Voir le NFO

------------------------------------------------------------------------
--------------------     Team PopHD present     --------------------
------------------------------------------------------------------------

----------------------------- GENERAL -------------------------------

      Pete's Dragon (2016) MULTi [1080p] BluRay x264-PopHD.mkv

Format                                   : Matroska
Format version                           : Version 4 / Version 2
File size                                : 2.72 GiB
Duration                                 : 1 h 42 min
Overall bit rate                         : 3 790 kb/s
Movie name                               : Pete's Dragon (2016) PopHD
Encoded date                             : UTC 2016-11-18 08:16:23
Writing application                      : mkvmerge v8.2.0 ('World of Adventure') 64bit
Writing library                          : libebml v1.3.1 + libmatroska v1.4.2
Cover                                    : Yes
Attachments                              : petes-dragon-2016-cover-tkhd.jpg

Video
ID                                       : 1
Format                                   : AVC
Format/Info                              : Advanced Video Codec
Format profile                           : [email protected]
Format settings, CABAC                   : Yes
Format settings, ReFrames                : 5 frames
Codec ID                                 : V_MPEG4/ISO/AVC
Duration                                 : 1 h 42 min
Bit rate                                 : 2 650 kb/s
Width                                    : 1 920 pixels
Height                                   : 800 pixels
Display aspect ratio                     : 2.40:1
Frame rate mode                          : Constant
Frame rate                               : 23.976 (24000/1001) FPS
Color space                              : YUV
Chroma subsampling                       : 4:2:0
Bit depth                                : 8 bits
Scan type                                : Progressive
Bits/(Pixel*Frame)                       : 0.072
Stream size                              : 1.90 GiB (70%)
Title                                    : Pete's Dragon (2016) PopHD
Writing library                          : x264 core 142 r2389 956c8d8

Audio #1
ID                                       : 2
Format                                   : AC-3
Format/Info                              : Audio Coding 3
Mode extension                           : CM (complete main)
Format settings, Endianness              : Big
Codec ID                                 : A_AC3
Duration                                 : 1 h 42 min
Bit rate mode                            : Constant
Bit rate                                 : 640 kb/s
Channel(s)                               : 6 channels
Channel positions                        : Front: L C R, Side: L R, LFE
Sampling rate                            : 48.0 kHz
Frame rate                               : 31.250 FPS (1536 spf)
Compression mode                         : Lossy
Stream size                              : 470 MiB (17%)
Title                                    : AC3-5.1-VFQ
Language                                 : French
Default                                  : Yes
Forced                                   : No

Audio #2
ID                                       : 3
Format                                   : AC-3
Format/Info                              : Audio Coding 3
Mode extension                           : CM (complete main)
Format settings, Endianness              : Big
Codec ID                                 : A_AC3
Duration                                 : 1 h 42 min
Bit rate mode                            : Constant
Bit rate                                 : 448 kb/s
Channel(s)                               : 6 channels
Channel positions                        : Front: L C R, Side: L R, LFE
Sampling rate                            : 48.0 kHz
Frame rate                               : 31.250 FPS (1536 spf)
Compression mode                         : Lossy
Stream size                              : 329 MiB (12%)
Title                                    : AC3-5.1-VO
Language                                 : English
Default                                  : No
Forced                                   : No

Text #1
ID                                       : 4
Format                                   : UTF-8
Codec ID                                 : S_TEXT/UTF8
Codec ID/Info                            : UTF-8 Plain Text
Duration                                 : 1 h 34 min
Bit rate                                 : 0 b/s
Count of elements                        : 22
Stream size                              : 396 Bytes (0%)
Title                                    : forced
Language                                 : French
Default                                  : No
Forced                                   : No

Text #2
ID                                       : 5
Format                                   : UTF-8
Codec ID                                 : S_TEXT/UTF8
Codec ID/Info                            : UTF-8 Plain Text
Duration                                 : 1 h 34 min
Bit rate                                 : 1 b/s
Count of elements                        : 22
Stream size                              : 1.33 KiB (0%)
Title                                    : forced colored
Language                                 : French
Default                                  : Yes
Forced                                   : No

Text #3
ID                                       : 6
Format                                   : UTF-8
Codec ID                                 : S_TEXT/UTF8
Codec ID/Info                            : UTF-8 Plain Text
Duration                                 : 1 h 35 min
Bit rate                                 : 33 b/s
Count of elements                        : 878
Stream size                              : 23.3 KiB (0%)
Title                                    : full
Language                                 : French
Default                                  : No
Forced                                   : No

Text #4
ID                                       : 7
Format                                   : PGS
Muxing mode                              : zlib
Codec ID                                 : S_HDMV/PGS
Codec ID/Info                            : Picture based subtitle format used on BDs/HD-DVDs
Duration                                 : 1 h 37 min
Bit rate                                 : 22.0 kb/s
Count of elements                        : 4304
Stream size                              : 15.4 MiB (1%)
Title                                    : commentaires (pgs)
Language                                 : French
Default                                  : No
Forced                                   : No

Text #5
ID                                       : 8
Format                                   : UTF-8
Codec ID                                 : S_TEXT/UTF8
Codec ID/Info                            : UTF-8 Plain Text
Duration                                 : 1 h 39 min
Bit rate                                 : 37 b/s
Count of elements                        : 1030
Stream size                              : 27.2 KiB (0%)
Title                                    : full
Language                                 : English
Default                                  : No
Forced                                   : No

Text #6
ID                                       : 9
Format                                   : UTF-8
Codec ID                                 : S_TEXT/UTF8
Codec ID/Info                            : UTF-8 Plain Text
Duration                                 : 1 h 41 min
Bit rate                                 : 42 b/s
Count of elements                        : 1231
Stream size                              : 31.4 KiB (0%)
Title                                    : SDH
Language                                 : English
Default                                  : No
Forced                                   : No

Text #7
ID                                       : 10
Format                                   : PGS
Muxing mode                              : zlib
Codec ID                                 : S_HDMV/PGS
Codec ID/Info                            : Picture based subtitle format used on BDs/HD-DVDs
Duration                                 : 1 h 39 min
Bit rate                                 : 29.5 kb/s
Count of elements                        : 4556
Stream size                              : 21.1 MiB (1%)
Title                                    : commentary (pgs)
Language                                 : English
Default                                  : No
Forced                                   : No

Menu
00:00:00.000                             : :Chapter 1
00:06:04.113                             : :Chapter 2
00:09:46.919                             : :Chapter 3
00:15:20.252                             : :Chapter 4
00:21:28.620                             : :Chapter 5
00:30:23.571                             : :Chapter 6
00:36:58.090                             : :Chapter 7
00:44:03.265                             : :Chapter 8
00:52:28.186                             : :Chapter 9
00:56:42.691                             : :Chapter 10
01:03:13.956                             : :Chapter 11
01:10:07.203                             : :Chapter 12
01:17:17.633                             : :Chapter 13
01:26:46.201                             : :Chapter 14
01:32:26.874                             : :Chapter 15
01:35:01.570                             : :Chapter 16

------------------------------- SOURCES --------------------------------

Pete's Dragon 2016 1080p AVC DTS-HD MA 7 1-BAKED

Encode par Tonyka                                         Enjoy !!     

Ajouter un commentaire

1 - 20 | 21 - 40 | 41 - 60 | 61 - 62
JORDAN162433 ↑ 153.25 GB ↓ 137.19 GB Ratio: 1,11

ok désolé fallait juste que je désactive adblock pour t411

JORDAN162433 ↑ 153.25 GB ↓ 137.19 GB Ratio: 1,11

bjr et merci
comment télécharger le torrent svp ?

rick48 ↑ 1.51 TB ↓ 1015.71 GB Ratio: 1,52

Merci beaucoup pour ce torrent !

rick48 ↑ 1.51 TB ↓ 1015.71 GB Ratio: 1,52

Merci beaucoup pour ce torrent !

mcgeo4 ↑ 15.15 GB ↓ 14.85 GB Ratio: 1,02

un grand merci pour mon boutchou

Jadalafolle ↑ 85.25 GB ↓ 60.61 GB Ratio: 1,40

merci pour le partage

genghiskhan91100 ↑ 1.1 TB ↓ 1.07 TB Ratio: 1,02

hechmiopgi3 ↑ 3.13 TB ↓ 2.63 TB Ratio: 1,19

mérciiiii .... de la part de mon petit fils ....

carte mer msi Z77 avec i5 3340
carte graphique ATi RX480 8Go
RAM 16 GO DDR3 et 2 To HDD
carte de son M-AUDIO M-TRACK MK2
win 10 professionnelle edition 64Bit

Talou36 ↑ 22.79 GB ↓ 10.8 GB Ratio: 2,11

Merci pour le partage

alcatilou ↑ 904.04 GB ↓ 604.68 GB Ratio: 1,49

merci pour le partage

stef69qc ↑ 1.08 TB ↓ 679.86 GB Ratio: 1,63

Merci pour ce partage

Ttaratata83 ↑ 977.5 GB ↓ 271.06 GB Ratio: 3,60

Merci beaucoup pour ce partage et bonne année 2017

foogzy ↑ 3.08 TB ↓ 425.63 GB Ratio: 7,40

Merci pour ce partage

lupuline ↑ 613.57 GB ↓ 560.05 GB Ratio: 1,09

merci pour le torrent et bonne année

rene44 ↑ 518.97 GB ↓ 423.23 GB Ratio: 1,22

merci

bewolf7 ↑ 167.4 GB ↓ 158.25 GB Ratio: 1,05

Cool, très belles fêtes de fin d'annéé!!

trullion22 ↑ 1.02 TB ↓ 415.83 GB Ratio: 2,51

Merci beaucoup pour ce torrent !

trullion22 ↑ 1.02 TB ↓ 415.83 GB Ratio: 2,51

Merci beaucoup pour ce torrent !

marco160 ↑ 2.24 TB ↓ 1.37 TB Ratio: 1,63

Merckkkkiiiiiiii

tikicagou1985 ↑ 274.45 GB ↓ 243.75 GB Ratio: 1,12

Merci pour ce partage et bonne fêtes de fin d'année...

1 - 20 | 21 - 40 | 41 - 60 | 61 - 62
 
Loading...