Torrent

PAWN.STARS.S13E02.La.première.dame.de.vert.FRENCH.480p.HDTV.x264 URL Raccourcie


PAWN STARS



SYNOPSIS


Cette série hors pair , proposé depuis 2009 sur la chaîne américaine History Channel suit les activités du Gold & Silver Shop, une société de prêteurs sur gages.

Trois générations composent cette entreprise familiale, Rick Harrison est propriétaire de la boutique avec son père Richard Benjamin Harrison dit "The Old Man", et exploite le magasin avec son fils Corey Harrison dit "Big Hoss" et Austin Russell dit "Chumlee". La tribu passe ses journées à estimer la valeur d'objets plus ou moins loufoques (tableaux de maître, montres de collectionneur, dents en or ou encore un alligator...) présentés par ses clients. Les Harrison les achètent s'ils estiment pouvoir en tirer un bénéfice à la revente. Dans le cas contraire, ils ne déboursent rien. Ils ont accepté d'être filmés afin de partager leur quotidien. C'est ainsi l'occasion d'assister à de surprenantes négociations et de découvrir les conflits familiaux qu'ils doivent régulièrement surmonter.

http://en.wikipedia.org/wiki/List_of_Pawn_Stars_episodes
http://www.history.com/shows/pawn-stars/


INFORMATION UPLOAD

Qualité : HDTV/480p
Format : MP4
Langue : Francais
Sous-titre : Aucun

LIENS DE TÉLÉCHARGEMENT

Télécharger PAWN.STARS.S13E02.La.première.dame.de.vert.FRENCH.480p.HDTV.x264 URL Raccourcie gratuitement

Cliquez ici pour télécharger la version FRANCAISE



TÉLÉCHARGER PAWN.STARS.S13E02.La.première.dame.de.vert.FRENCH.480p.HDTV.x264 AVEC USENET (ANONYME&RAPIDE) 14 jours gratuits

↓↓↓ PAWN.STARS.S13E02.La.première.dame.de.vert.FRENCH.480p.HDTV.x264 ↓↓↓
 
Seeders 1 Leechers 21 Téléchargements 3
 
Télécharger Dire merci! Signaler
Voir la liste des membres qui vous remercient
↑↑↑ PAWN.STARS.S13E02.La.première.dame.de.vert.FRENCH.480p.HDTV.x264 ↑↑↑

Informations

Nom PAWN.STARS.S13E02.La.première.dame.de.vert.FRENCH.480p.HDTV.x264
Torrent PAWN.STARS.S13E02.La.première.dame.de.vert.FRENCH.480p.HDTV.x264.torrent
Catégorie Emission TV
Taille totale 233.97 MB
Info Hash b1fdde1d5c83e27e756f4db6497dd5170bcafa53
Uploadé par Anonymous
Uploadé le 2017-03-15 18:15:18 (+00:00)
Visites 176
évaluation 5/5 (4 votes)

Liste des Fichiers

Path Size
PAWN.STARS.S13E02.La.première.dame.de.vert.FRENCH.480p.HDTV.x264.mp4 233.97 MB

Voir le NFO

General
Complete name                            : PAWN.STARS.S13E02.La.premiere.dame.de.vert.FRENCH.480p.HDTV.x264.mp4
Format                                   : MPEG-4
Format profile                           : Base Media
Codec ID                                 : isom (isom/iso2/avc1/mp41)
File size                                : 234 MiB
Duration                                 : 19mn 8s
Overall bit rate                         : 1 708 Kbps
Writing application                      : Lavf57.61.100

Video
ID                                       : 1
Format                                   : AVC
Format/Info                              : Advanced Video Codec
Format profile                           : [email protected]
Format settings, CABAC                   : Yes
Format settings, ReFrames                : 4 frames
Codec ID                                 : avc1
Codec ID/Info                            : Advanced Video Coding
Duration                                 : 19mn 8s
Bit rate                                 : 1 572 Kbps
Width                                    : 854 pixels
Height                                   : 480 pixels
Display aspect ratio                     : 16:9
Original display aspect ratio            : 16:9
Frame rate mode                          : Constant
Frame rate                               : 25.000 fps
Color space                              : YUV
Chroma subsampling                       : 4:2:0
Bit depth                                : 8 bits
Scan type                                : Progressive
Bits/(Pixel*Frame)                       : 0.153
Stream size                              : 215 MiB (92%)
Writing library                          : x264 core 148 r2744 b97ae06
Encoding settings                        : cabac=1 / ref=2 / deblock=1:0:0 / analyse=0x3:0x113 / me=hex / subme=6 / psy=1 / psy_rd=1.00:0.00 / mixed_ref=1 / me_range=16 / chroma_me=1 / trellis=1 / 8x8dct=1 / cqm=0 / deadzone=21,11 / fast_pskip=1 / chroma_qp_offset=-2 / threads=6 / lookahead_threads=1 / sliced_threads=0 / nr=0 / decimate=1 / interlaced=0 / bluray_compat=0 / constrained_intra=0 / bframes=3 / b_pyramid=2 / b_adapt=1 / b_bias=0 / direct=1 / weightb=1 / open_gop=0 / weightp=1 / keyint=250 / keyint_min=25 / scenecut=40 / intra_refresh=0 / rc_lookahead=30 / rc=crf / mbtree=1 / crf=18.0 / qcomp=0.60 / qpmin=0 / qpmax=69 / qpstep=4 / ip_ratio=1.40 / aq=1:1.00

Audio
ID                                       : 2
Format                                   : MPEG Audio
Format version                           : Version 1
Format profile                           : Layer 3
Mode                                     : Joint stereo
Codec ID                                 : 6B
Duration                                 : 19mn 8s
Bit rate mode                            : Constant
Bit rate                                 : 128 Kbps
Channel(s)                               : 2 channels
Sampling rate                            : 44.1 KHz
Compression mode                         : Lossy
Stream size                              : 17.5 MiB (7%)
Default                                  : Yes
Alternate group                          : 1


Ajouter un commentaire

 
Loading...