Torrent

Molusco - 1x04 - L'alien URL Raccourcie



Molusco - 1x04 - L'alien





Nombre de saison(s) : 1
Nombre d'épisode(s) : 52
Origine : France, États-Unis
Genre : Série d'animation, Comédie
Durée : 12 minutes
Titre original : Boyster




Qualité : HDTV
Format : MKV
Langue : True French
Codec vidéo : AVC/H264 à 1021kbps
Codec audio : MP3 à 128kbps



Découpage : Aucun
Tailles des fichiers : 1 x 91 Mo
Nom de la release : Molusco - 1x04 - L'alien
Taille totale : 91 Mo


LIENS DE TÉLÉCHARGEMENT

Télécharger Molusco - 1x04 - L'alien URL Raccourcie gratuitement

Cliquez ici pour télécharger la version FRANCAISE



TÉLÉCHARGER Molusco - 1x04 - L'alien AVEC USENET (ANONYME&RAPIDE) 14 jours gratuits

Informations

Nom Molusco - 1x04 - L'alien
Torrent Molusco - 1x04 - L'alien.mkv.torrent
Catégorie Animation Série
Taille totale 90.69 MB
Info Hash 8657a3957a8d8655c72409ecc82f8bd626ae78ad
Uploadé par HPep
Uploadé le 2017-03-14 20:46:10 (+00:00)
Visites 293
évaluation 5/5 (1 votes)

Liste des Fichiers

Path Size
Molusco - 1x04 - L'alien.mkv 90.69 MB

Voir le NFO

 ■General

Unique ID                      : 185976108535392851296823748276700119485 (0x8BE9B21542669E062239A5D8728D01BD)

Complete name                  : Molusco - 1x04 - L'alien.mkv

Format                         : Matroska

Format version                 : Version 4 / Version 2

File size                      : 90.7 MiB

Duration                       : 11 min 0 s

Overall bit rate               : 1 153 kb/s

Encoded date                   : UTC 2017-03-09T19:09:52Z

Writing application            : HandBrake 1.0.0 2016122400

Writing library                : Lavf57.7.2 / Lavf57.7.2



Video

ID                             : 1

Format                         : AVC

Format/Info                    : Advanced Video Codec

Format profile                 : High@L5.1

Format settings, CABAC         : Yes

Format settings, ReFrames      : 4 frames

Codec ID                       : V_MPEG4/ISO/AVC

Duration                       : 11 min 0 s

Bit rate                       : 1 021 kb/s

Width                          : 720 pixels

Height                         : 406 pixels

Display aspect ratio           : 16:9

Frame rate mode                : Constant

Frame rate                     : 25.000 FPS

Color space                    : YUV

Chroma subsampling             : 4:2:0

Bit depth                      : 8 bits

Scan type                      : Progressive

Bits/(Pixel*Frame)             : 0.140

Stream size                    : 78.8 MiB (87%)

Writing library                : x264 core 148 r2708 86b7198

Encoding settings              : cabac=1 / ref=3 / deblock=1:0:0 / analyse=0x3:0x113 / me=hex / subme=7 / psy=1 / psy_rd=1.00:0.00 / mixed_ref=1 / me_range=16 / chroma_me=1 / trellis=1 / 8x8dct=1 / cqm=0 / deadzone=21,11 / fast_pskip=1 / chroma_qp_offset=-2 / threads=6 / lookahead_threads=1 / sliced_threads=0 / nr=0 / decimate=1 / interlaced=0 / bluray_compat=0 / constrained_intra=0 / bframes=3 / b_pyramid=2 / b_adapt=1 / b_bias=0 / direct=1 / weightb=1 / open_gop=0 / weightp=2 / keyint=250 / keyint_min=25 / scenecut=40 / intra_refresh=0 / rc_lookahead=40 / rc=2pass / mbtree=1 / bitrate=1021 / ratetol=1.0 / qcomp=0.60 / qpmin=0 / qpmax=69 / qpstep=4 / cplxblur=20.0 / qblur=0.5 / vbv_maxrate=300000 / vbv_bufsize=300000 / nal_hrd=none / filler=0 / ip_ratio=1.40 / aq=1:1.00

Default                        : Yes

Forced                         : No

Color range                    : Limited

Color primaries                : BT.601 PAL

Transfer characteristics       : BT.709

Matrix coefficients            : BT.601



Audio

ID                             : 2

Format                         : MPEG Audio

Format version                 : Version 1

Format profile                 : Layer 3

Mode                           : Joint stereo

Mode extension                 : MS Stereo

Codec ID                       : A_MPEG/L3

Codec ID/Hint                  : MP3

Duration                       : 11 min 0 s

Bit rate mode                  : Constant

Bit rate                       : 128 kb/s

Channel(s)                     : 2 channels

Sampling rate                  : 48.0 kHz

Compression mode               : Lossy

Delay relative to video        : -23 ms

Stream size                    : 10.1 MiB (11%)

Title                          : Stereo

Writing library                : LAME3.98

Default                        : Yes

Forced                         : No



Ajouter un commentaire

 
Loading...