Torrent

L.Experience.De.La.Troisieme.Vague.DOC.FRENCH.PDTV.XViD-FTV URL Raccourcie


L'expérience de la Troisième Vague






Réalisateur(s) : Félix Enríquez Alcalá, Glenn Kershaw
Titre Original : L'expérience de la troisième vague
Genre : Histoire
Durée : 57 min
Diffusé sur : Histoire
Diffusé le : 21 février 2012




L'expérience de la troisième vague revient sur l'étude expérimentale du fascisme réalisée en 1967 aux Etats-Unis communément appelée troisième vague. Au Cubberley High School de Palo Alto en Californie, le professeur d'histoire charismatique Ron Jones décide d'instaurer au sein d'une classe des règles de discipline basées sur le bien de la communauté et l'intérêt général. En une semaine, cette expérience inédite sur le fonctionnement d'une dictature comme celle du troisième Reich connaît un succès inégalé et le nombre d'étudiants atteint 200. Ce documentaire réalisé par un élève de l'époque nous propose des interviews d'étudiants d'origine, de Ron Jones, d'administrateurs scolaires...




Codec : XviD
Qualité : TVRip
Format : AVI
Langue : Francais
Sous-titre : Aucun

Résolution : 624 x 336 Pixels
Bitrate Vidéo : 1 312 Kbps
Bitrate Audio : 160 Kbps

Taille Totale Du Post : 597 Mo


---





---

Uploadé par :




Message de l'uploader :

Merci de ne commenter que pour apporter des informations sur le contenu du torrent, sur sa qualité ou poser des questions.

Si vous souhaitez me remercier n'hésitez pas à cliquer sur le bouton Dire Merci ! Cela permettra de ne pas noyer les informations utiles à toute la communauté, votre geste me touchera tout autant et ça m'évitera d'avoir ça à gérer.


LIENS DE TÉLÉCHARGEMENT

Télécharger L.Experience.De.La.Troisieme.Vague.DOC.FRENCH.PDTV.XViD-FTV URL Raccourcie gratuitement

Cliquez ici pour télécharger la version FRANCAISE



TÉLÉCHARGER L.Experience.De.La.Troisieme.Vague.DOC.FRENCH.PDTV.XViD-FTV AVEC USENET (ANONYME&RAPIDE) 14 jours gratuits

↓↓↓ L.Experience.De.La.Troisieme.Vague.DOC.FRENCH.PDTV.XViD-FTV ↓↓↓
 
Seeders 0 Leechers 3 Téléchargements 690
 
Télécharger Dire merci! Signaler
Voir la liste des membres qui vous remercient
↑↑↑ L.Experience.De.La.Troisieme.Vague.DOC.FRENCH.PDTV.XViD-FTV ↑↑↑

Informations

Nom L.Experience.De.La.Troisieme.Vague.DOC.FRENCH.PDTV.XViD-FTV
Torrent L.Experience.De.La.Troisieme.Vague.DOC.FRENCH.PDTV.XViD-FTV.torrent
Catégorie Documentaire
Taille totale 597.45 MB
Info Hash eba5377e0a68ba5878b5287c167770c4284e23a9
Uploadé par Komakind
Uploadé le 2012-04-01 20:34:42 (+00:00)
Visites 1010
évaluation 4.8/5 (13 votes)

Liste des Fichiers

Path Size
L.Experience.De.La.Troisieme.Vague.DOC.FRENCH.PDTV.XViD-FTV/ftv-ledltv.avi 597.45 MB
L.Experience.De.La.Troisieme.Vague.DOC.FRENCH.PDTV.XViD-FTV/ftv-ledltv.nfo 2.96 KB

Voir le NFO

General
Complete name                    : ftv-ledltv.avi
Format                           : AVI
Format/Info                      : Audio Video Interleave
File size                        : 597 MiB
Duration                         : 56mn 27s
Overall bit rate                 : 1 480 Kbps

Video
ID                               : 0
Format                           : MPEG-4 Visual
Format profile                   : Advanced [email protected]
Format settings, BVOP            : Yes
Format settings, QPel            : No
Format settings, GMC             : No warppoints
Format settings, Matrix          : Default (H.263)
Codec ID                         : XVID
Codec ID/Hint                    : XviD
Duration                         : 56mn 27s
Bit rate                         : 1 310 Kbps
Width                            : 624 pixels
Height                           : 336 pixels
Display aspect ratio             : 1.857
Frame rate                       : 25.000 fps
Color space                      : YUV
Chroma subsampling               : 4:2:0
Bit depth                        : 8 bits
Scan type                        : Progressive
Compression mode                 : Lossy
Bits/(Pixel*Frame)               : 0.250
Stream size                      : 529 MiB (89%)
Writing library                  : XviD 1.2.1 (UTC 2008-12-04)

Audio
ID                               : 1
Format                           : AC-3
Format/Info                      : Audio Coding 3
Mode extension                   : CM (complete main)
Codec ID                         : 2000
Duration                         : 56mn 27s
Bit rate mode                    : Constant
Bit rate                         : 160 Kbps
Channel(s)                       : 2 channels
Channel positions                : Front: L R
Sampling rate                    : 48.0 KHz
Bit depth                        : 16 bits
Compression mode                 : Lossy
Stream size                      : 64.6 MiB (11%)
Alignment                        : Aligned on interleaves
Interleave, duration             : 40 ms (1.00 video frame)

Ajouter un commentaire

Nais38 ↑ 612.59 GB ↓ 539.34 GB Ratio: 1,13

Un re-seed est -il possible ?
Merci.

Nais38 ↑ 612.59 GB ↓ 539.34 GB Ratio: 1,13

Un re-seed est -il possible ?
Merci.

Adpatres ↑ 34.57 GB ↓ 7.75 GB Ratio: 4,45

Merci beaucoup, je recherchais ce documentaire depuis un moment. Je le laisserai en seed.

Mankind49 ↑ 10.88 TB ↓ 6.69 TB Ratio: 1,62

merci , en train de lire le livre qui romance cette expérience, je suis curieux de voir les bases réelles .
Je finaliserais par le film sans doute .

cedrik74 ↑ 390.32 GB ↓ 273.41 GB Ratio: 1,42

Ce n'est pas une pré-histoire du film "la vague", c'est l'histoire qui a inspiré le film. Le DVD de "la vague" contient d'ailleurs une interview de Ron Jones.
Merci, venant justement de voir "la vague", j'étais curieux de voir ce documentaire.

Komakind ↑ 7.23 TB ↓ 1.75 TB Ratio: 4,12

Message de l'uploader :

Merci de ne commenter que pour apporter des informations sur le contenu du torrent, sur sa qualité ou poser des questions.

Si vous souhaitez me remercier n'hésitez pas à cliquer sur le bouton Dire Merci qui se trouve juste à droite du bouton Télécharger ! Cela permettra de ne pas noyer les informations utiles à toute la communauté, votre geste me touchera tout autant et ça m'évitera d'avoir ça à gérer.

Bien à vous,

 
Loading...