Torrent

Hand Shakers 10 - VOSTFR 720p URL Raccourcie




Informations sur la série :

Il s'agit d'un projet conjoint entre GoHands, Kadokawa et Frontier Works.

L'histoire se déroule à Osaka et tourne autour de duos baptisés Hand Shakers. Lorsqu'ils se tiennent par la main, ces duos ont le pouvoir d'invoquer de puissantes armes, les Nimrodes, dans le but d'affronter d'autres Hand Shakers. Car selon la légende, seul le meilleur duo obtiendra le droit de défier "Dieu".

Informations episode
Episode : 10
Origine : Japon
Genre : Action - Fantastique - Science-fiction
Durée : 00:25:00
Date de sortie : 2017
Titre original : Hand Shakers

Informations sur l'upload

Qualité : 720p
Format : mp4
Langue : Japonais
Sous-titre : Français
Tailles des fichiers : 1 x 433 Mo
Taille totale : 433 Mo


Heberger sur SeedBox


LIENS DE TÉLÉCHARGEMENT

Télécharger Hand Shakers 10 - VOSTFR 720p URL Raccourcie gratuitement

Cliquez ici pour télécharger la version FRANCAISE



TÉLÉCHARGER Hand Shakers 10 - VOSTFR 720p AVEC USENET (ANONYME&RAPIDE) 14 jours gratuits

↓↓↓ Hand Shakers 10 - VOSTFR 720p  ↓↓↓
 
Seeders 29 Leechers 0 Téléchargements 120
 
Télécharger Dire merci! Signaler
Voir la liste des membres qui vous remercient
↑↑↑ Hand Shakers 10 - VOSTFR 720p  ↑↑↑

Informations

Nom Hand Shakers 10 - VOSTFR 720p
Torrent Hand Shakers - 10 VOSTFR [720p].mp4.torrent
Catégorie Animation Série
Taille totale 433.33 MB
Info Hash 3bd49e19923fbd34c03e86ae6dde0052b835c9a9
Uploadé par Otakuploader
Uploadé le 2017-03-14 20:29:29 (+00:00)
Visites 419
évaluation 4.9/5 (12 votes)

Liste des Fichiers

Path Size
Hand Shakers - 10 VOSTFR [720p].mp4 433.33 MB

Voir le NFO

General
Complete name                            : Hand Shakers - 10 VOSTFR [720p].mp4
Format                                   : MPEG-4
Format profile                           : Base Media
Codec ID                                 : isom
File size                                : 433 MiB
Duration                                 : 23mn 40s
Overall bit rate                         : 2 560 Kbps
Writing application                      : Lavf57.41.100

Video
ID                                       : 1
Format                                   : AVC
Format/Info                              : Advanced Video Codec
Format profile                           : [email protected]
Format settings, CABAC                   : Yes
Format settings, ReFrames                : 4 frames
Codec ID                                 : avc1
Codec ID/Info                            : Advanced Video Coding
Duration                                 : 23mn 40s
Bit rate                                 : 2 421 Kbps
Width                                    : 1 280 pixels
Height                                   : 720 pixels
Display aspect ratio                     : 16:9
Frame rate mode                          : Constant
Frame rate                               : 23.976 fps
Color space                              : YUV
Chroma subsampling                       : 4:2:0
Bit depth                                : 8 bits
Scan type                                : Progressive
Bits/(Pixel*Frame)                       : 0.110
Stream size                              : 410 MiB (95%)
Writing library                          : x264 core 148
Encoding settings                        : cabac=1 / ref=3 / deblock=1:0:0 / analyse=0x3:0x113 / me=hex / subme=7 / psy=1 / psy_rd=1.00:0.00 / mixed_ref=1 / me_range=16 / chroma_me=1 / trellis=1 / 8x8dct=1 / cqm=0 / deadzone=21,11 / fast_pskip=1 / chroma_qp_offset=-2 / threads=6 / lookahead_threads=1 / sliced_threads=0 / nr=0 / decimate=1 / interlaced=0 / bluray_compat=0 / constrained_intra=0 / bframes=3 / b_pyramid=2 / b_adapt=1 / b_bias=0 / direct=1 / weightb=1 / open_gop=0 / weightp=2 / keyint=250 / keyint_min=23 / scenecut=40 / intra_refresh=0 / rc_lookahead=40 / rc=crf / mbtree=1 / crf=18.0 / qcomp=0.60 / qpmin=0 / qpmax=69 / qpstep=4 / ip_ratio=1.40 / aq=1:1.00

Audio
ID                                       : 2
Format                                   : AAC
Format/Info                              : Advanced Audio Codec
Format profile                           : LC
Codec ID                                 : 40
Duration                                 : 23mn 40s
Bit rate mode                            : Constant
Bit rate                                 : 132 Kbps
Channel(s)                               : 2 channels
Channel positions                        : Front: L R
Sampling rate                            : 44.1 KHz
Compression mode                         : Lossy
Delay relative to video                  : 83ms
Stream size                              : 22.3 MiB (5%)
Language                                 : Japanese

Ajouter un commentaire

sarok0 ↑ 4.11 TB ↓ 2.54 TB Ratio: 1,61

Quand je le lance c'est Masamune-kun no Revenge - 10 et non Hand Shakers - 10

 
Loading...