Torrent

Earth, Wind & Fire - 1974 - Open Our Eyes [SACD ISO] (Earth Wind and Fire) URL Raccourcie


Earth, Wind & Fire - 1974 - Open Our Eyes [SACD ISO]








Earth, Wind and Fire est un groupe de jazz-funk originaire de Chicago dans l'Illinois. Le groupe a été formé en 1969 à l'initiative de Maurice White. Sa plus notable particularité a été sa capacité à innover en introduisant et en mélangeant de façon savante et inédite des éléments issus des traditions musicales africaines, brésiliennes, cubaines et caribéennes à son funk caractérisé par une section de cuivre de grande qualité (les Phenix Horns) et des arrangements empruntés aussi bien au jazz qu'à la musique symphonique. La musique d'Earth, Wind and Fire a d'ailleurs parfois été qualifiée de « funk symphonique ». Le groupe s'est également démarqué par la complémentarité de ses deux chanteurs Maurice White et Philip Bailey (dont les remarquables capacités vocales couvrent plusieurs octaves).

Open Our Eyes est le cinquième album du groupe Earth, Wind & Fire, sorti en 1974 sous le label Columbia Records. L'album s'est hissé à la première place des R&B Charts et à la quinzième place des Pop Charts. Open Our Eyes contient les singles ayant figuré au Billboard "Mighty Mighty" (R&B #4, Pop #29), "Devotion" (R&B #23, Pop #33) and "Kalimba Story" (R&B #6, Pop #55). L'album a été rendu disponible en version remasterisée digitallement en 2001, incluant quatre pistes jamais parues auparavant. Open Our Eyes a été certifié platine par la RIAA.


INFOS GÉNÉRALES

Durée: 40:20 (39:51 pour le multichannel)
Date de sortie: 1974
Origine: États-Unis
Genre: Funk jazz
Label: Columbia

Tracklist

01-Mighty Mighty
02-Devotion
03-Fair But So Uncool
04-Feelin' Blue
05-Kalimba Story
06-Drum Song
07-Tee Nine Chee Bit
08-Spasmodic Movements
09-Rabbit Seed
10-Caribou
11-Open Our Eyes


INFOS TECHNIQUES

Source: SACD
Codec: Stereo: DSD64, Multichannel: DST64
Conteneur: iso
Débit: Stereo: 5645kbps, Multichannel: 14112kbps
Specs audio: Stereo/Multichannel 1bit 2822.4kHz
Taille de l'album: 2.98GB

Taille totale du post: 2.99GB


Mais le SACD, qu'est-ce que c'est?

Le SACD (Super Audio Compact Disc) est un support sonore numérique de type disque optique en lecture seule, considéré comme faisant partie de l'audio haut de gamme. Sa résolution sonore est supérieure à celle de son prédécesseur encore commercialisé, le Compact Disc. Il est disponible en format stéréo et/ou multicanal (jusqu'à 6 canaux 5.1).

Bien que ce format reprenne la galette CD, il a une capacité de stockage égale à celle du DVD, ainsi qu'une possibilité de combiner à sa technologie haute définition celle du CD classique.

Le codec utilisé sur ce média est le DSD, Direct Stream Digital, un procédé de stockage des signaux audio sur un média numérique lancé à la fin des années 1990 par Sony et Philips.

Il est en concurrence directe avec le PCM (codage sonore utilisé pour les Compact Discs) haute définition présent sur les DVD audio, lancés commercialement peu après le Super Audio CD.


C'est bien beau tout ça, mais comment lire le .iso d'un SACD?

Facile! Sur Windows:
1 - Installer le programme foobar 2000
2 - Ajouter le composant SACD à foobar

Tutoriel disponible ici: http://www.youtube.com/watch?v=NDd6HkwO5jc

Sur Mac: Installer Audirvana: http://billionpricesproject.info/t/5649319

p.s. Ne pas essayer de monter l'image (genre avec Daemon Tools), ça donne un message d'erreur et ça sert à rien.

Bonne écoute!!
fafouine232


LIENS DE TÉLÉCHARGEMENT

Télécharger Earth, Wind & Fire - 1974 - Open Our Eyes [SACD ISO] (Earth Wind and Fire) URL Raccourcie gratuitement

Cliquez ici pour télécharger la version FRANCAISE



TÉLÉCHARGER Earth, Wind & Fire - 1974 - Open Our Eyes [SACD ISO] (Earth Wind and Fire) AVEC USENET (ANONYME&RAPIDE) 14 jours gratuits

↓↓↓ Earth, Wind & Fire - 1974 - Open Our Eyes [SACD ISO] (Earth Wind and Fire) ↓↓↓
 
Seeders 15 Leechers 0 Téléchargements 32
 
Télécharger Dire merci! Signaler
Voir la liste des membres qui vous remercient
↑↑↑ Earth, Wind & Fire - 1974 - Open Our Eyes [SACD ISO] (Earth Wind and Fire) ↑↑↑

Informations

Nom Earth, Wind & Fire - 1974 - Open Our Eyes [SACD ISO] (Earth Wind and Fire)
Torrent Earth, Wind & Fire - 1974 - Open Our Eyes [SACD ISO].torrent
Catégorie Musique
Taille totale 3 GB
Info Hash 156dfae22b1b9fceec3ccd42ecbfcfb05db5105c
Uploadé par fafouine232
Uploadé le 2017-03-20 17:04:33 (+00:00)
Visites 86
évaluation 0/5 (0 votes)

Liste des Fichiers

Path Size
Earth, Wind & Fire - 1974 - Open Our Eyes [SACD ISO]/Artwork/Booklet 01-12.jpg 1.58 MB
Earth, Wind & Fire - 1974 - Open Our Eyes [SACD ISO]/Artwork/Booklet 02-03.jpg 1.28 MB
Earth, Wind & Fire - 1974 - Open Our Eyes [SACD ISO]/Artwork/Booklet 08-09.jpg 1.28 MB
Earth, Wind & Fire - 1974 - Open Our Eyes [SACD ISO]/Artwork/Booklet 06-07.jpg 1.23 MB
Earth, Wind & Fire - 1974 - Open Our Eyes [SACD ISO]/Artwork/Booklet 04-05.jpg 1.21 MB
Earth, Wind & Fire - 1974 - Open Our Eyes [SACD ISO]/Artwork/Booklet 10-11.jpg 1.17 MB
Earth, Wind & Fire - 1974 - Open Our Eyes [SACD ISO]/Artwork/Slipcase Front.jpg 924.01 KB
Earth, Wind & Fire - 1974 - Open Our Eyes [SACD ISO]/Artwork/Tray.jpg 881.33 KB
Earth, Wind & Fire - 1974 - Open Our Eyes [SACD ISO]/Artwork/Slipcase Rear.jpg 844.5 KB
Earth, Wind & Fire - 1974 - Open Our Eyes [SACD ISO]/Artwork/Disc.jpg 676.94 KB
Earth, Wind & Fire - 1974 - Open Our Eyes [SACD ISO]/Earth, Wind & Fire - Open Our Eyes.iso 2.98 GB
Earth, Wind & Fire - 1974 - Open Our Eyes [SACD ISO]/folder.jpg 149.05 KB
Earth, Wind & Fire - 1974 - Open Our Eyes [SACD ISO]/foo_dr.txt 2.74 KB
Earth, Wind & Fire - 1974 - Open Our Eyes [SACD ISO]/sacd_log.txt 2.3 KB

Voir le NFO

foobar2000 1.3.8 / Dynamic Range Meter 1.1.1
log date: 2015-07-05 14:19:58

--------------------------------------------------------------------------------
Analyzed: Earth, Wind & Fire / Open Our Eyes
--------------------------------------------------------------------------------

DR         Peak         RMS     Duration Track
--------------------------------------------------------------------------------
DR11      -6.62 dB   -25.24 dB      3:06 01-Mighty Mighty
DR11      -8.69 dB   -27.54 dB      4:50 02-Devotion
DR12      -5.29 dB   -25.11 dB      3:40 03-Fair But So Uncool
DR10      -5.94 dB   -26.19 dB      4:18 04-Feelin' Blue
DR12      -5.85 dB   -25.92 dB      4:10 05-Kalimba Story
DR14      -5.10 dB   -27.14 dB      5:12 06-Drum Song
DR12      -5.20 dB   -25.49 dB      3:44 07-Tee Nine Chee Bit
DR11      -5.40 dB   -26.01 dB      1:50 08-Spasmodic Movements
DR9      -15.00 dB   -35.50 dB      0:33 09-Rabbit Seed
DR10      -7.00 dB   -24.85 dB      3:25 10-Caribou
DR10      -7.92 dB   -26.32 dB      5:04 11-Open Our Eyes
--------------------------------------------------------------------------------

Number of tracks:  11
Official DR value: DR11

Samplerate:        2822400 Hz / PCM Samplerate: 88200 Hz
Channels:          5
Bits per sample:   24
Bitrate:           14112 kbps
Codec:             DST64
================================================================================

--------------------------------------------------------------------------------
Analyzed: Earth, Wind & Fire / Open Our Eyes
--------------------------------------------------------------------------------

DR         Peak         RMS     Duration Track
--------------------------------------------------------------------------------
DR12      -8.73 dB   -24.28 dB      3:06 01-Mighty Mighty
DR13     -10.09 dB   -26.14 dB      4:54 02-Devotion
DR13      -7.63 dB   -22.47 dB      3:42 03-Fair But So Uncool
DR13      -7.28 dB   -24.50 dB      4:31 04-Feelin' Blue
DR12      -8.28 dB   -23.38 dB      4:09 05-Kalimba Story
DR13      -7.69 dB   -23.78 dB      5:11 06-Drum Song
DR14      -6.87 dB   -23.78 dB      3:46 07-Tee Nine Chee Bit
DR12     -10.39 dB   -26.05 dB      1:51 08-Spasmodic Movements
DR13     -15.06 dB   -31.64 dB      0:32 09-Rabbit Seed
DR11      -8.42 dB   -23.07 dB      3:27 10-Caribou
DR11      -9.61 dB   -25.59 dB      5:10 11-Open Our Eyes
--------------------------------------------------------------------------------

Number of tracks:  11
Official DR value: DR13

Samplerate:        2822400 Hz / PCM Samplerate: 88200 Hz
Channels:          2
Bits per sample:   24
Bitrate:           5645 kbps
Codec:             DSD64
================================================================================

Ajouter un commentaire

menezis

j'ai hâte d’écouter ce super audio cd coolllllllllllllllllllllllllll merci

blackcat64 ↑ 17.65 TB ↓ 6.6 TB Ratio: 2,67

Merci pour mes oreilles

 
Loading...