Torrent

Deepwater Horizon (2016) MULTi VFQ [1080p] BluRay x264-PopHD URL Raccourcie


Multi (VFQ-VO) - HD Light 1080p







Origine : U.S.A.
Réalisateur : Peter Berg
Acteurs : Mark Wahlberg, Dylan O'Brien, Kate Hudson, Kurt Russell, John Malkovich
Genre : Drame, Action
Durée : 1h 48min
Date de sortie : 12 Octobre 2016
Année de production : 2016
Titre original : Deepwater Horizon
Critiques Spectateurs : 4.0
Critiques Presses : 3.3
IMDb : 7.3

Fiche d'information Allociné : ICI
Fiche d'information IMDb : ICI





D’après l’incroyable histoire vraie de la plus grande catastrophe pétrolière de l’histoire.La plateforme Deepwater Horizon tourne non-stop pour tirer profit des 800 millions de litres de pétrole présents dans les profondeurs du golfe du Mexique. Mike Williams, électricien sur la plateforme et père de famille, connaît les risques de son métier mais fait confiance au professionnalisme de son patron Jimmy Harrell. En revanche, tous se méfient de la société locataire de la plateforme dirigée par Donald Vidrine, qui ne pense qu’à son bénéfice. Lorsque cette société décide contre l’avis des techniciens de la déplacer trop rapidement, il sont loin de se douter que les 5 millions de barils sous leurs pieds sont prêts à exploser... Le seul courage de Mike et ses collègues suffira-t-il à limiter les dégâts et sauver ce qui peut encore l’être ?


Bande annonce :



Ce up peut paraître léger pour un 1080p mais les options d'encodage du x264 permettent d'obtenir une qualité qui se rapproche des versions lourdes, tout en préservant votre ratio !



                           • Format :      MKV (AVC H.264 @2 650 Kbps - [email protected])

                           • Audio :        Français (VFQ) : AC3 5.1 @448 kbps
                                            Anglais        : AC3 5.1 @448 kbps

                           • Sous-titres : Français [forcés] Pas de sous-titres complets
                                            Anglais  [complets & SDH]


                           • Résolution : 1920x804         |    Format à l'écran :2.40

                           • Taille du fichier : 2.66 Go    |    Encodé parTonyka



popopoooooo, Abi, LotusFlower, Tonyka, itamma, Noex







Pour les BluRay FULL, REMUX ou HD régulier & 3D allez voir ICI

LIENS DE TÉLÉCHARGEMENT

Télécharger Deepwater Horizon (2016) MULTi VFQ [1080p] BluRay x264-PopHD URL Raccourcie gratuitement

Cliquez ici pour télécharger la version FRANCAISE
PUB



TÉLÉCHARGER Deepwater Horizon (2016) MULTi VFQ [1080p] BluRay x264-PopHD AVEC USENET (ANONYME&RAPIDE) 14 jours gratuits

PUB

↓↓↓ Deepwater Horizon (2016) MULTi VFQ [1080p] BluRay x264-PopHD ↓↓↓
 
Seeders 2918 Leechers 191 Téléchargements 19192
 
Télécharger Dire merci! Signaler
Voir la liste des membres qui vous remercient
↑↑↑ Deepwater Horizon (2016) MULTi VFQ [1080p] BluRay x264-PopHD ↑↑↑

Informations

Nom Deepwater Horizon (2016) MULTi VFQ [1080p] BluRay x264-PopHD
Torrent Deepwater Horizon (2016) MULTi [1080p] BluRay x264-PopHD.torrent
Catégorie Film
Taille totale 2.66 GB
Info Hash f3f5085e8f7df7746282b3f1345dcef114593c3e
Uploadé par popopoooooo
Uploadé le 2017-01-26 23:19:58 (+00:00)
Visites 20883
évaluation 4.7/5 (166 votes)

Liste des Fichiers

Path Size
Deepwater Horizon (2016) MULTi [1080p] BluRay x264-PopHD/Deepwater Horizon (2016) MULTi [1080p] BluRay x264-PopHD.mkv 2.66 GB
Deepwater Horizon (2016) MULTi [1080p] BluRay x264-PopHD/folder.jpg 386.91 KB
Deepwater Horizon (2016) MULTi [1080p] BluRay x264-PopHD/Thumbs.db 31 KB

Voir le NFO

------------------------------------------------------------------------
--------------------     Team PopHD present     --------------------
------------------------------------------------------------------------

----------------------------- GENERAL -------------------------------


     Deepwater Horizon (2016) MULTi [1080p] BluRay x264-PopHD.mkv

Format                                   : Matroska
Format version                           : Version 4 / Version 2
File size                                : 2.66 GiB
Duration                                 : 1 h 47 min
Overall bit rate                         : 3 547 kb/s
Movie name                               : Deepwater Horizon (2016) PopHD
Encoded date                             : UTC 2017-01-11 02:32:13
Writing application                      : mkvmerge v8.2.0 ('World of Adventure') 64bit
Writing library                          : libebml v1.3.1 + libmatroska v1.4.2
Cover                                    : Yes
Attachments                              : deepwater-horizon-cover.png

Video
ID                                       : 1
Format                                   : AVC
Format/Info                              : Advanced Video Codec
Format profile                           : [email protected]
Format settings, CABAC                   : Yes
Format settings, ReFrames                : 5 frames
Codec ID                                 : V_MPEG4/ISO/AVC
Duration                                 : 1 h 47 min
Bit rate                                 : 2 650 kb/s
Width                                    : 1 920 pixels
Height                                   : 804 pixels
Display aspect ratio                     : 2.40:1
Frame rate mode                          : Constant
Frame rate                               : 23.976 (24000/1001) FPS
Color space                              : YUV
Chroma subsampling                       : 4:2:0
Bit depth                                : 8 bits
Scan type                                : Progressive
Bits/(Pixel*Frame)                       : 0.072
Stream size                              : 1.98 GiB (75%)
Title                                    : Deepwater Horizon (2016) PopHD
Writing library                          : x264 core 142 r2479 dd79a61

Audio #1
ID                                       : 2
Format                                   : AC-3
Format/Info                              : Audio Coding 3
Mode extension                           : CM (complete main)
Format settings, Endianness              : Big
Codec ID                                 : A_AC3
Duration                                 : 1 h 47 min
Bit rate mode                            : Constant
Bit rate                                 : 448 kb/s
Channel(s)                               : 6 channels
Channel positions                        : Front: L C R, Side: L R, LFE
Sampling rate                            : 48.0 kHz
Frame rate                               : 31.250 FPS (1536 spf)
Compression mode                         : Lossy
Stream size                              : 344 MiB (13%)
Title                                    : AC3-5.1-VFQ
Language                                 : French
Default                                  : Yes
Forced                                   : No

Audio #2
ID                                       : 3
Format                                   : AC-3
Format/Info                              : Audio Coding 3
Mode extension                           : CM (complete main)
Format settings, Endianness              : Big
Codec ID                                 : A_AC3
Duration                                 : 1 h 47 min
Bit rate mode                            : Constant
Bit rate                                 : 448 kb/s
Channel(s)                               : 6 channels
Channel positions                        : Front: L C R, Side: L R, LFE
Sampling rate                            : 48.0 kHz
Frame rate                               : 31.250 FPS (1536 spf)
Compression mode                         : Lossy
Stream size                              : 344 MiB (13%)
Title                                    : AC3-5.1-VO
Language                                 : English
Default                                  : No
Forced                                   : No

Text #1
ID                                       : 4
Format                                   : UTF-8
Codec ID                                 : S_TEXT/UTF8
Codec ID/Info                            : UTF-8 Plain Text
Duration                                 : 1 h 39 min
Bit rate                                 : 1 b/s
Count of elements                        : 32
Stream size                              : 1.34 KiB (0%)
Title                                    : forced
Language                                 : French
Default                                  : No
Forced                                   : No

Text #2
ID                                       : 5
Format                                   : UTF-8
Codec ID                                 : S_TEXT/UTF8
Codec ID/Info                            : UTF-8 Plain Text
Duration                                 : 1 h 39 min
Bit rate                                 : 3 b/s
Count of elements                        : 32
Stream size                              : 2.84 KiB (0%)
Title                                    : forced colored
Language                                 : French
Default                                  : Yes
Forced                                   : No

Text #3
ID                                       : 6
Format                                   : UTF-8
Codec ID                                 : S_TEXT/UTF8
Codec ID/Info                            : UTF-8 Plain Text
Duration                                 : 1 h 40 min
Bit rate                                 : 68 b/s
Count of elements                        : 1505
Stream size                              : 50.8 KiB (0%)
Title                                    : full
Language                                 : English
Default                                  : No
Forced                                   : No

Text #4
ID                                       : 7
Format                                   : UTF-8
Codec ID                                 : S_TEXT/UTF8
Codec ID/Info                            : UTF-8 Plain Text
Duration                                 : 1 h 40 min
Bit rate                                 : 76 b/s
Count of elements                        : 1656
Stream size                              : 56.4 KiB (0%)
Title                                    : SDH
Language                                 : English
Default                                  : No
Forced                                   : No

Menu
00:00:00.000                             : en:Chapter 01
00:07:01.212                             : en:Chapter 02
00:12:32.626                             : en:Chapter 03
00:19:34.464                             : en:Chapter 04
00:27:17.218                             : en:Chapter 05
00:34:52.673                             : en:Chapter 06
00:44:29.833                             : en:Chapter 07
00:48:05.173                             : en:Chapter 08
00:53:47.265                             : en:Chapter 09
00:58:05.690                             : en:Chapter 10
01:05:44.607                             : en:Chapter 11
01:10:06.869                             : en:Chapter 12
01:16:02.933                             : en:Chapter 13
01:20:44.381                             : en:Chapter 14
01:27:37.669                             : en:Chapter 15
01:31:37.825                             : en:Chapter 16

------------------------------- SOURCES --------------------------------

BluRay Zone A

Encode par Tonyka                                         Enjoy !!     

Ajouter un commentaire

1 - 20 | 21 - 40 | 41 - 47
jeanmichebourr ↑ 37.96 GB ↓ 28.16 GB Ratio: 1,34

Les sous titres francais ne fonctionnaient pas chez moi, sur VLC.

iTzAvenGer ↑ 917.28 GB ↓ 251.97 GB Ratio: 3,64

Merci pour ce magnifique film.
qualité toujours aux top 10/10.

HelloBilly

Merci pour le partage, qualité top

">

Chiptune !

lolobolos ↑ 3.59 TB ↓ 3.27 TB Ratio: 1,09

Téléchargé ce film un peu au hasard et sur base du synopsis. Je ne regrette aucunement. La qualité toujours au rendez-vous avec Pop

fabi24 ↑ 4.06 TB ↓ 3.11 TB Ratio: 1,30

QUEBEC50 ↑ 15.63 GB ↓ 14.5 GB Ratio: 1,07

Merci pour le partage l'ami

trailpad ↑ 2.03 TB ↓ 986.75 GB Ratio: 2,10

A se souvenir que c'est tiré d'un fait Vécu... Ouff qu'ils en on bavé

Encore des commentaire par ce que c'est en VFQ.. mausus les nombriliste de baguet de pein Québecophobe...

perenouell ↑ 3.71 TB ↓ 2.04 TB Ratio: 1,82

il y a les méchants foreurs de pétrole et les gentils foreurs de pétrole. les méchants polluent la mer et les gentils aussi.... mais ils sont gentils!!!

LotusFlower • Team PopHD • ↑ 97.1 TB ↓ 5.87 TB Ratio: 16,52

@mrDruide Avant de laisser un commentaire sur tous les posts 1080p, je t'invite t'informer un peu en suivant le lien que je t'ai donné sur le post de Sully

********************************************************

mrDruide Mr_Med

Résolution : 1920x804 / c'est pas du 1080p!!!

Amitié, Partage

xianlo ↑ 1012.19 GB ↓ 967.33 GB Ratio: 1,04

Merci pour le partage, qualité intéressante pour le poids.

xianlo ↑ 1012.19 GB ↓ 967.33 GB Ratio: 1,04

Merci pour le partage, qualité intéressante pour le poids.

traveltek8 ↑ 84.22 GB ↓ 66.77 GB Ratio: 1,26

Parfait ! Merci du partage !

traveltek8 ↑ 84.22 GB ↓ 66.77 GB Ratio: 1,26

Parfait ! Merci du partage !

vfr33 ↑ 43.61 GB ↓ 40.51 GB Ratio: 1,07

Super merci pour ce partage

ginice Gonzo Advocat ↑ 8.13 TB ↓ 6.69 TB Ratio: 1,21

je poste rarement mais si comme tu le dis c'est un multi langue et donc soustitre ... tu upload pas un truc a moitié ou tu ne les indiquent pas ..... là c'est clairement pas un multi ( enfin c un multi au niveau audio mais des sous titres ) alorsoui je rejoins son avis ... par contre moi j 'aimerais une version 720p x264 merci d'avance :p VO VF peu importe c'est le poids sur le disque dur qui'minquiéte^^

too rare to die too weird to live

maxerbox Developpeur et Joueur ↑ 1.04 TB ↓ 212.01 GB Ratio: 5,02

Pas mal, ça passe comme film, c'est plutôt prenant, même si le scénario n'est pas trop poussé !

WHL

abe27633

Épique!!

torrent=life

Experiencedu77

merci bien 10/10

diablo09203 yu mo gui gwai fai di zao ↑ 1014.96 GB ↓ 556.17 GB Ratio: 1,82

Merci encore l'ami !! je vais toujours gardé ce film avec moi !!

Trop bon & Émotive !

yu mo gui gwai fai di zao !
yu mo gui gwai fai di zao !

L'oncle Chan !

1 - 20 | 21 - 40 | 41 - 47
 
Loading...