Torrent

Deepwater Horizon (2016) MULTI TRUEFRENCH [1080p] HDlight x264-SVR URL Raccourcie

Deepwater






Origine : U.S.A.
Réalisateur : Peter Berg
Acteurs : Mark Wahlberg, Dylan O'Brien, Kate Hudson, Kurt Russell, John Malkovich
Genre : Drame, Action
Durée : 1h 48min
Date de sortie : 12 Octobre 2016
Année de production : 2016
Titre original : Deepwater Horizon
Critiques Spectateurs : 3.9
Critiques Presses : 3.3
Plus d'information sur allocine : http://www.allocine.fr/film/fichefilm_gen_cfilm=191344.html
Bande annonce : Deepwater Bande-annonce VF



D’après l’incroyable histoire vraie de la plus grande catastrophe pétrolière de l’histoire.La plateforme Deepwater Horizon tourne non-stop pour tirer profit des 800 millions de litres de pétrole présents dans les profondeurs du golfe du Mexique. Mike Williams, électricien sur la plateforme et père de famille, connaît les risques de son métier mais fait confiance au professionnalisme de son patron Jimmy Harrell. En revanche, tous se méfient de la société locataire de la plateforme dirigée par Donald Vidrine, qui ne pense qu’à son bénéfice. Lorsque cette société décide contre l’avis des techniciens de la déplacer trop rapidement, il sont loin de se douter que les 5 millions de barils sous leurs pieds sont prêts à exploser... Le seul courage de Mike et ses collègues suffira-t-il à limiter les dégâts et sauver ce qui peut encore l’être ?





Qualité : HDlight 1080p
Format : MKV
Langue : True French, Anglais
Sous-titre : Français (complet & forcés)
Codec vidéo : x264
Codec audio : AC3 448 kbps

LIENS DE TÉLÉCHARGEMENT

Télécharger Deepwater Horizon (2016) MULTI TRUEFRENCH [1080p] HDlight x264-SVR URL Raccourcie gratuitement

Cliquez ici pour télécharger la version FRANCAISE
PUB



TÉLÉCHARGER Deepwater Horizon (2016) MULTI TRUEFRENCH [1080p] HDlight x264-SVR AVEC USENET (ANONYME&RAPIDE) 14 jours gratuits

PUB

↓↓↓ Deepwater Horizon (2016) MULTI TRUEFRENCH [1080p] HDlight x264-SVR ↓↓↓
 
Seeders 1362 Leechers 3 Téléchargements 7620
 
Télécharger Dire merci! Signaler
Voir la liste des membres qui vous remercient
↑↑↑ Deepwater Horizon (2016) MULTI TRUEFRENCH [1080p] HDlight x264-SVR ↑↑↑

Informations

Nom Deepwater Horizon (2016) MULTI TRUEFRENCH [1080p] HDlight x264-SVR
Torrent Deepwater.Horizon.2016.MULTI.TRUEFRENCH.1080p.HDlight.x264-SVR.mkv.torrent
Catégorie Film
Taille totale 2.55 GB
Info Hash 2ae4c22a1d421e1f2234501e7de4078d8671c08b
Uploadé par savior1377
Uploadé le 2017-02-13 15:20:49 (+00:00)
Visites 8283
évaluation 4.9/5 (60 votes)

Liste des Fichiers

Path Size
Deepwater.Horizon.2016.MULTI.TRUEFRENCH.1080p.HDlight.x264-SVR.mkv 2.55 GB

Voir le NFO

General
Complete name                            : Deepwater.Horizon.2016.MULTI.TRUEFRENCH.1080p.HDlight.x264-SVR.mkv
Format                                   : Matroska
Format version                           : Version 2
File size                                : 2.55 GiB
Duration                                 : 1 h 47 min
Overall bit rate                         : 3 395 kb/s
Encoded date                             : UTC 2017-02-12 00:40:34
Writing application                      : mkvmerge v5.6.0 ('Kenya Kane') built on May 28 2012 06:47:39
Writing library                          : libebml v1.2.2 + libmatroska v1.3.0

Video
ID                                       : 1
Format                                   : AVC
Format/Info                              : Advanced Video Codec
Format profile                           : [email protected]
Format settings, CABAC                   : Yes
Format settings, ReFrames                : 4 frames
Muxing mode                              : Header stripping
Codec ID                                 : V_MPEG4/ISO/AVC
Duration                                 : 1 h 47 min
Bit rate                                 : 2 500 kb/s
Width                                    : 1 920 pixels
Height                                   : 800 pixels
Display aspect ratio                     : 2.40:1
Frame rate mode                          : Constant
Frame rate                               : 24.000 FPS
Color space                              : YUV
Chroma subsampling                       : 4:2:0
Bit depth                                : 8 bits
Scan type                                : Progressive
Bits/(Pixel*Frame)                       : 0.068
Stream size                              : 1.82 GiB (72%)
Writing library                          : x264 core 148 r2597M e86f3a1
Encoding settings                        : cabac=1 / ref=4 / deblock=1:-1:-1 / analyse=0x3:0x113 / me=umh / subme=9 / psy=1 / psy_rd=1.00:0.15 / mixed_ref=1 / me_range=24 / chroma_me=1 / trellis=2 / 8x8dct=1 / cqm=0 / deadzone=21,11 / fast_pskip=1 / chroma_qp_offset=-3 / threads=32 / lookahead_threads=4 / sliced_threads=0 / nr=0 / decimate=1 / interlaced=0 / bluray_compat=0 / constrained_intra=0 / bframes=3 / b_pyramid=2 / b_adapt=2 / b_bias=0 / direct=3 / weightb=1 / open_gop=0 / weightp=2 / keyint=250 / keyint_min=25 / scenecut=40 / intra_refresh=0 / rc_lookahead=50 / rc=2pass / mbtree=1 / bitrate=2500 / ratetol=1.0 / qcomp=0.60 / qpmin=0 / qpmax=69 / qpstep=4 / cplxblur=20.0 / qblur=0.5 / vbv_maxrate=31250 / vbv_bufsize=31250 / nal_hrd=none / filler=0 / ip_ratio=1.40 / aq=3:1.00
Language                                 : English
Default                                  : Yes
Forced                                   : No

Audio #1
ID                                       : 2
Format                                   : AC-3
Format/Info                              : Audio Coding 3
Mode extension                           : CM (complete main)
Format settings, Endianness              : Big
Muxing mode                              : Header stripping
Codec ID                                 : A_AC3
Duration                                 : 1 h 47 min
Bit rate mode                            : Constant
Bit rate                                 : 448 kb/s
Channel(s)                               : 6 channels
Channel positions                        : Front: L C R, Side: L R, LFE
Sampling rate                            : 48.0 kHz
Frame rate                               : 31.250 FPS (1536 spf)
Bit depth                                : 16 bits
Compression mode                         : Lossy
Stream size                              : 344 MiB (13%)
Title                                    : vff 448 kbps
Language                                 : French
Default                                  : Yes
Forced                                   : No

Audio #2
ID                                       : 3
Format                                   : AC-3
Format/Info                              : Audio Coding 3
Mode extension                           : CM (complete main)
Format settings, Endianness              : Big
Muxing mode                              : Header stripping
Codec ID                                 : A_AC3
Duration                                 : 1 h 47 min
Bit rate mode                            : Constant
Bit rate                                 : 448 kb/s
Channel(s)                               : 6 channels
Channel positions                        : Front: L C R, Side: L R, LFE
Sampling rate                            : 48.0 kHz
Frame rate                               : 31.250 FPS (1536 spf)
Bit depth                                : 16 bits
Compression mode                         : Lossy
Stream size                              : 344 MiB (13%)
Language                                 : English
Default                                  : No
Forced                                   : No

Text #1
ID                                       : 4
Format                                   : UTF-8
Codec ID                                 : S_TEXT/UTF8
Codec ID/Info                            : UTF-8 Plain Text
Title                                    : forced
Language                                 : French
Default                                  : Yes
Forced                                   : Yes

Text #2
ID                                       : 5
Format                                   : UTF-8
Codec ID                                 : S_TEXT/UTF8
Codec ID/Info                            : UTF-8 Plain Text
Title                                    : full
Language                                 : French
Default                                  : No
Forced                                   : No

Ajouter un commentaire

thejocker790 ↑ 10 GB ↓ 10.34 GB Ratio: 0,96

Je l'ai vu au ciné, c'est une tueriiiiie

Ricounne ↑ 1.23 TB ↓ 979.04 GB Ratio: 1,28

merci pour le travail good job

Ricounne ↑ 1.23 TB ↓ 979.04 GB Ratio: 1,28

merci pour le travail good job

aziz178 ↑ 54.28 GB ↓ 54.34 GB Ratio: 0,99

merci pour le partage , beau film

aziz178 ↑ 54.28 GB ↓ 54.34 GB Ratio: 0,99

merci pour le partage , beau film

aziz178 ↑ 54.28 GB ↓ 54.34 GB Ratio: 0,99

merci pour le partage , beau film

Mythe12

Merci pour ce partage.

Ch0uwBiZ ↑ 509.82 GB ↓ 67.8 GB Ratio: 7,51

Un très très beau film, poignant, touchant, surtout à la fin... Je trouve que c'est un très bel hommage à la catastrophe de 2010.
Image et son 10/10

sgougou ↑ 108.38 GB ↓ 44.11 GB Ratio: 2,45

merci pour le seed

ladn70 ↑ 1.39 TB ↓ 859.06 GB Ratio: 1,66

Très bonne qualité d'image et son merci pour le partage

landofthefree Windows 7 the best !

Très bonne qualité d'image et son... Film très bien !

Site bloquer par les FAI ! Utilisez le navigateur "Opera" qui à un VPN gratos et très efficace...

chrissarra ↑ 1.3 TB ↓ 530.04 GB Ratio: 2,51

Merci pour ce film que j'attendais avec impatience !

chrissarra ↑ 1.3 TB ↓ 530.04 GB Ratio: 2,51

Merci pour ce film que j'attendais avec impatience !

SynergyPromos Expert Seeder ↑ 1.81 TB ↓ 1.18 TB Ratio: 1,54

Encodage parfait, merci pour ce superbe travaille !

beepbeepacme

cool merci

abe27633

merci pour le partage

torrent=life

salima18562 Hello ↑ 1.79 TB ↓ 1.02 TB Ratio: 1,75

merci pour ce film

MAXIMUS VII RANGER, i5-4690K, Thermaltake Water 3.0 Ultimate, Gigabyte GTX 970 XTREME Gaming, Evo Potenza 8Go DDR3 2666Mhz, ADATA 480Go, samsung 1To, Cooler Master V750 80+ Gold

 
Loading...