Torrent

Debarquement.Immediat.2016.FRENCH.DVDRip.x264.AC3-Notag URL Raccourcie

Débarquement immédiat







Origine du film : France
Réalisateur : Philippe de Chauveron
Acteurs : Ary Abittan, Medi Sadoun, Cyril Lecomte
Genre : Comedie
Durée : 1h30
Date de sortie : 13 juillet 2016
Année de production : 2016



C'est l'histoire d'un flic de la police des frontières qui ramène un gars dans son pays, sauf que ce n'est pas le bon gars et ce n'est pas le bon pays..




Qualité : DVDRiP
Format : MKV
Codec Vidéo : x264
Codec Audio : AC3
Langues : Francais
Taille totale : 1,18 Go



LIENS DE TÉLÉCHARGEMENT

Télécharger Debarquement.Immediat.2016.FRENCH.DVDRip.x264.AC3-Notag URL Raccourcie gratuitement

Cliquez ici pour télécharger la version FRANCAISE
PUB



TÉLÉCHARGER Debarquement.Immediat.2016.FRENCH.DVDRip.x264.AC3-Notag AVEC USENET (ANONYME&RAPIDE) 14 jours gratuits

PUB

↓↓↓ Debarquement.Immediat.2016.FRENCH.DVDRip.x264.AC3-Notag ↓↓↓
 
Seeders 1458 Leechers 3 Téléchargements 21815
 
Télécharger Dire merci! Signaler
Voir la liste des membres qui vous remercient
↑↑↑ Debarquement.Immediat.2016.FRENCH.DVDRip.x264.AC3-Notag ↑↑↑

Informations

Nom Debarquement.Immediat.2016.FRENCH.DVDRip.x264.AC3-Notag
Torrent Debarquement.Immediat.2016.FRENCH.DVDRip.x264.AC3-Notag.mkv.torrent
Catégorie Film
Taille totale 1.18 GB
Info Hash 34bc5be4090c6e5492d0370301b54a8573d0f0a3
Uploadé par Anonymous
Uploadé le 2016-11-20 10:39:38 (+00:00)
Visites 28838
évaluation 4.8/5 (278 votes)

Liste des Fichiers

Path Size
Debarquement.Immediat.2016.FRENCH.DVDRip.x264.AC3-Notag.mkv 1.18 GB

Voir le NFO

General
Unique ID : 217383515657750704857428137057063334500 (0xA38A8ACF1204E92AA563AF33FD34F264)
Complete name :Debarquement.Immediat.2016.FRENCH.DVDRip.x264.AC3-Notag.mkv
Format : Matroska
Format version : Version 4 / Version 2
File size : 1.18 GiB
Duration : 1h 27mn
Overall bit rate : 1 932 Kbps
Movie name : Débarquement.Immédiat.2016.FRENCH.DVDRip.x264.AC3-Notag
Encoded date : UTC 2016-11-18 20:53:02
Writing application : mkvmerge v9.4.2 ('So High') 64bit
Writing library : libebml v1.3.4 + libmatroska v1.4.5
DURATION : 01:27:27.552000000
NUMBER_OF_FRAMES : 163986
NUMBER_OF_BYTES : 293862912
_STATISTICS_WRITING_APP : mkvmerge v9.4.2 ('So High') 64bit
_STATISTICS_WRITING_DATE_UTC : 2016-11-18 20:53:02
_STATISTICS_TAGS : BPS DURATION NUMBER_OF_FRAMES NUMBER_OF_BYTES

Video
ID : 1
Format : AVC
Format/Info : Advanced Video Codec
Format profile : [email protected]
Format settings, CABAC : Yes
Format settings, ReFrames : 6 frames
Codec ID : V_MPEG4/ISO/AVC
Duration : 1h 27mn
Bit rate : 1 445 Kbps
Width : 720 pixels
Height : 552 pixels
Display aspect ratio : 1.85:1
Frame rate mode : Constant
Frame rate : 25.000 fps
Color space : YUV
Chroma subsampling : 4:2:0
Bit depth : 8 bits
Scan type : Progressive
Bits/(Pixel*Frame) : 0.145
Stream size : 904 MiB (75%)
Writing library : x264 core 142 r2479 dd79a61
Encoding settings : cabac=1 / ref=6 / deblock=1:0:0 / analyse=0x3:0x133 / me=umh / subme=7 / psy=1 / psy_rd=1.00:0.00 / mixed_ref=1 / me_range=16 / chroma_me=1 / trellis=0 / 8x8dct=1 / cqm=0 / deadzone=21,11 / fast_pskip=0 / chroma_qp_offset=-2 / threads=6 / lookahead_threads=1 / sliced_threads=0 / nr=0 / decimate=1 / interlaced=0 / bluray_compat=0 / constrained_intra=0 / bframes=3 / b_pyramid=2 / b_adapt=2 / b_bias=0 / direct=3 / weightb=1 / open_gop=0 / weightp=2 / keyint=250 / keyint_min=25 / scenecut=40 / intra_refresh=0 / rc_lookahead=50 / rc=crf / mbtree=1 / crf=19.0 / qcomp=0.60 / qpmin=0 / qpmax=69 / qpstep=4 / ip_ratio=1.40 / aq=1:1.00
Language : French
Default : Yes
Forced : No
Color primaries : BT.601 PAL
Transfer characteristics : BT.709
Matrix coefficients : BT.601
DURATION : 01:27:27.600000000
NUMBER_OF_FRAMES : 131190
NUMBER_OF_BYTES : 972155459
_STATISTICS_WRITING_APP : mkvmerge v9.4.2 ('So High') 64bit
_STATISTICS_WRITING_DATE_UTC : 2016-11-18 20:53:02
_STATISTICS_TAGS : BPS DURATION NUMBER_OF_FRAMES NUMBER_OF_BYTES

Audio
ID : 2
Format : AC-3
Format/Info : Audio Coding 3
Mode extension : CM (complete main)
Format settings, Endianness : Big
Codec ID : A_AC3
Duration : 1h 27mn
Bit rate mode : Constant
Bit rate : 448 Kbps
Channel(s) : 6 channels
Channel positions : Front: L C R, Side: L R, LFE
Sampling rate : 48.0 KHz
Bit depth : 16 bits
Compression mode : Lossy
Delay relative to video : -80ms
Stream size : 280 MiB (23%)
Default : Yes
Forced : No

Ajouter un commentaire

1 - 20 | 21 - 40 | 41 - 60
nakmuay73 ↑ 10.71 GB ↓ 11.63 GB Ratio: 0,92

merci pour le film! mais alors quel navet hallucinant!

quad10 ↑ 372.95 GB ↓ 66.03 GB Ratio: 5,64

Francesca70 ↑ 982.77 GB ↓ 828.47 GB Ratio: 1,18

Bonne qualité... bon d'accord c'est une comédie mais j'ai eu comme un malaise sur certaines scènes trop crédibles. Mais merci à l'uploader

Djojo31

@degood

tout est a jour et c'est le seul film ou j'ai ce décalage
j'ai oublié de préciser que j'ai ce décalage que sur ma smart tv phillips et pas sur mon mac

Dernière édition par Djojo31 le 2017-01-03 21:59:26

Djojo31

du decalage dans les dialogues

Manupiro ↑ 90.86 GB ↓ 83.21 GB Ratio: 1,09

merci pour le partage

petitmarkinus ↑ 1.32 TB ↓ 220.1 GB Ratio: 6,15

merci bien

many57 ↑ 177.39 GB ↓ 83.82 GB Ratio: 2,11

grand merci superbe film

focaldouze ↑ 420.09 GB ↓ 330.72 GB Ratio: 1,27

Merci pour ce superbe up

gillesmich ↑ 5.79 TB ↓ 1.24 TB Ratio: 4,68

Un grand merci

star123456789 ↑ 59.13 GB ↓ 45.53 GB Ratio: 1,29

Merci pour ce partage, qualité au top et film vraiment fun!!

je déclare avoir le au débit de la fibres

dioptaze T411 POWAAA!

Merci pour ce film et cette rigolade en perspective

Doudman17 ↑ 356.44 GB ↓ 260.32 GB Ratio: 1,36

Bonne qualité, pas de problème.

Merci pour le partage!

theo13014 ↑ 7.3 TB ↓ 5.31 TB Ratio: 1,37

merci

massi00 ↑ 10.01 GB ↓ 1.42 GB Ratio: 7,03

merci un bon film

moldasse ↑ 10.04 GB ↓ 705.19 MB Ratio: 14,58

possible de l'avoir en 1080?!?!

Shinigami69 Shinigami ↑ 3.68 TB ↓ 1.13 TB Ratio: 3,25

Merci pour ce film, son et qualité niquel !!!

SI4D ↑ 1.15 TB ↓ 938.85 GB Ratio: 1,24

J'aurais dû me méfier quand j'ai vu TF1 Vidéo !
Bonne qualité sinon..

ziroutB6 ↑ 528.94 GB ↓ 513.87 GB Ratio: 1,02

Excellent film top qualité, pour la taille du fichier.

Elfeadoria Forza Xana ↑ 2.5 TB ↓ 1.01 TB Ratio: 2,47

A MOURIR DE RIRE !

Vraiment top ce film j'ai passé un agréable moment, si bon même que le lendemain je puisse m'empêcher de le regarder une deuxième fois .... ! J'ai rigolé tout le long du film.

Si vous avez d'autres films comiques français récent, je suis preneuse alors envoyez-moi un message privée !!!


1 - 20 | 21 - 40 | 41 - 60
 
Loading...