Torrent

Adopte.Un.Veuf.2016.FRENCH.1080p.HDLight.x264.NiTrOs29 URL Raccourcie

Adopte Un Veuf
HDLight 1080p




Origine : France
Réalisateur : François Desagnat
Acteurs : André Dussollier, Bérengère Krief, Arnaud Ducret, Julia Piaton, Nicolas Marié
Genre : Comédie
Durée : 1h 37min
Date de sortie : 20 Avril 2016
Année de production : 2015
Titre original : Adopte Un Veuf
Critiques Spectateurs : 3.8
Critiques Presses : 2.9
Plus d'information sur allocine : http://www.allocine.fr/film/fichefilm_gen_cfilm=239056.html
Bande annonce : Adopte Un Veuf Bande-annonce VF



Lorsqu’on est veuf depuis peu, il est difficile de s'habituer à sa nouvelle vie... C’est le cas d’Hubert Jacquin, qui passe le plus clair de son temps dans son immense appartement à déprimer devant sa télé. Un beau jour, suite à un quiproquo, sa vie va être bouleversée. Manuela, une jeune et pétillante baroudeuse à la recherche d’un logement s’invite chez lui ! D’abord réticent, Hubert va vite s’habituer à la présence de cette tempête d’énergie, qui parvient même à le convaincre de loger deux autres personnes. Entre les errements de Paul-Gérard que sa femme a quitté et les gardes à l'hôpital de Marion la jeune infirmière un peu coincée, la vie en colocation va réserver à Hubert de nombreuses surprises…



Qualité : HDLight 1080p
Format : MKV
Langue : True French
Codec vidéo : AVC/X264 à 2235kbps
Codec audio : AC-3 à 384kbps



Hébergeur :SeedBox
Découpage : Aucun
Tailles des fichiers : 1 x 1,81 Go
Nom de la release : Adopte.Un.Veuf.2016.FRENCH.1080p.HDLight.x264.NiTrOs29
Taille totale : 1,81 Go




LIENS DE TÉLÉCHARGEMENT

Télécharger Adopte.Un.Veuf.2016.FRENCH.1080p.HDLight.x264.NiTrOs29 URL Raccourcie gratuitement

Cliquez ici pour télécharger la version FRANCAISE
PUB



TÉLÉCHARGER Adopte.Un.Veuf.2016.FRENCH.1080p.HDLight.x264.NiTrOs29 AVEC USENET (ANONYME&RAPIDE) 14 jours gratuits

PUB

↓↓↓ Adopte.Un.Veuf.2016.FRENCH.1080p.HDLight.x264.NiTrOs29 ↓↓↓
 
Seeders 1889 Leechers 2 Téléchargements 35753
 
Télécharger Dire merci! Signaler
Voir la liste des membres qui vous remercient
↑↑↑ Adopte.Un.Veuf.2016.FRENCH.1080p.HDLight.x264.NiTrOs29 ↑↑↑

Informations

Nom Adopte.Un.Veuf.2016.FRENCH.1080p.HDLight.x264.NiTrOs29
Torrent Adopte.Un.Veuf.2016.FRENCH.1080p.HDLight.x264.NiTrOs29.mkv.torrent
Catégorie Film
Taille totale 1.81 GB
Info Hash 641fec42d12dacb7fe2f73a7db257d9c29d7418c
Uploadé par ValRossi46
Uploadé le 2016-09-15 20:29:39 (+00:00)
Visites 32987
évaluation 4.9/5 (226 votes)

Liste des Fichiers

Path Size
Adopte.Un.Veuf.2016.FRENCH.1080p.HDLight.x264.NiTrOs29.mkv 1.81 GB

Voir le NFO

General
Complete name : Adopte.Un.Veuf.2016.FRENCH.1080p.HDLight.x264.NiTrOs29.mkv
Format : Matroska
Format version : Version 2
File size : 1.81 GiB
Duration : 1h 37mn
Overall bit rate : 2 672 Kbps
Encoded date : UTC 2016-08-23T00:03:48Z
Writing application : HandBrake 0.10.5 2016021100
Writing library : Lavf55.12.0

Video
ID : 1
Format : AVC
Format/Info : Advanced Video Codec
Format profile : [email protected]
Format settings, CABAC : Yes
Format settings, ReFrames : 5 frames
Codec ID : V_MPEG4/ISO/AVC
Duration : 1h 37mn
Bit rate : 2 235 Kbps
Width : 1 920 pixels
Height : 800 pixels
Display aspect ratio : 2.40:1
Frame rate mode : Variable
Frame rate : 24.000 fps
Color space : YUV
Chroma subsampling : 4:2:0
Bit depth : 8 bits
Scan type : Progressive
Bits/(Pixel*Frame) : 0.061
Stream size : 1.52 GiB (84%)
Writing library : x264 core 142 r2479 dd79a61
Encoding settings : cabac=1 / ref=5 / deblock=1:-1:-1 / analyse=0x3:0x133 / me=umh / subme=8 / psy=1 / psy_rd=1.00:0.15 / mixed_ref=1 / me_range=16 / chroma_me=1 / trellis=0 / 8x8dct=1 / cqm=0 / deadzone=21,11 / fast_pskip=0 / chroma_qp_offset=-2 / threads=6 / lookahead_threads=1 / sliced_threads=0 / nr=0 / decimate=1 / interlaced=0 / bluray_compat=0 / constrained_intra=0 / bframes=6 / b_pyramid=2 / b_adapt=2 / b_bias=0 / direct=1 / weightb=1 / open_gop=0 / weightp=2 / keyint=240 / keyint_min=24 / scenecut=40 / intra_refresh=0 / rc_lookahead=50 / rc=crf / mbtree=1 / crf=20.0 / qcomp=0.60 / qpmin=0 / qpmax=69 / qpstep=4 / vbv_maxrate=24000 / vbv_bufsize=24000 / crf_max=0.0 / nal_hrd=none / filler=0 / ip_ratio=1.40 / aq=1:1.00
Default : Yes
Forced : No
Color primaries : BT.709-5, BT.1361, IEC 61966-2-4, SMPTE RP177
Transfer characteristics : BT.709-5, BT.1361
Matrix coefficients : BT.709-5, BT.1361, IEC 61966-2-4 709, SMPTE RP177

Audio
ID : 2
Format : AC-3
Format/Info : Audio Coding 3
Mode extension : CM (complete main)
Format settings, Endianness : Big
Codec ID : A_AC3
Duration : 1h 37mn
Bit rate mode : Constant
Bit rate : 384 Kbps
Channel(s) : 6 channels
Channel positions : Front: L C R, Side: L R, LFE
Sampling rate : 48.0 KHz
Bit depth : 16 bits
Compression mode : Lossy
Delay relative to video : 1mn 5s
Stream size : 267 MiB (14%)
Title : Surround
Language : French
Default : Yes
Forced : No

Ajouter un commentaire

1 - 20 | 21 - 40 | 41 - 59
Piedro

HADOPI RECU POUR CE TORRENT ATTENTION

Piedro

HADOPI RECU POUR CE TORRENT ATTENTION

Piedro

HADOPI RECU POUR CE TORRENT ATTENTION

loutrette ↑ 158.49 GB ↓ 151.97 GB Ratio: 1,04

Hadopi reçu ce jour, controlé mi février.

bergamo ↑ 9.8 TB ↓ 4.47 TB Ratio: 2,19

merci

starm1 ↑ 9.7 TB ↓ 1.1 TB Ratio: 8,79

Merci pour l'upload!
Très bonne comédie française

lorette59650 ↑ 118.41 GB ↓ 88.23 GB Ratio: 1,34

merci pour le partage tout est ok

ValRossi46 Motard et fier de l'être ;) ↑ 20.46 TB ↓ 115.04 GB Ratio: 182,13

@Tous peut-être que le nombre de téléchargements les attire ces bébêtes là (34174) je pense que ça peu jouer. Film victime de son succès. PROTÉGEZ VOUS

snower ↑ 4.47 TB ↓ 2.44 TB Ratio: 1,83

HADOPI aussi Ils en listent plusieurs d'un coup maintenant ^^

ValRossi46 Motard et fier de l'être ;) ↑ 20.46 TB ↓ 115.04 GB Ratio: 182,13

@lordgotham
C'est le risque du partage que ce soit T411, ou autres. La solution rester cachés. VPN ou SeedBox. Pour vivre heureux, vivons cachés

lordgotham ↑ 437.83 GB ↓ 237.86 GB Ratio: 1,84

hadopi aussi sniff j'ai plus trop confiance a t411 désolé mais 3 films surveillé « ADOPTE UN VEUF, Independence Day: Resurgence, Pattaya

ValRossi46 Motard et fier de l'être ;) ↑ 20.46 TB ↓ 115.04 GB Ratio: 182,13

Attention, au vu des commentaires, louez un VPN, ou mieux une seedbox, cela vous mets à l’abri de ces bons à rien décérébrés qui sont hadopi

elisagex44 ↑ 808.41 GB ↓ 704.96 GB Ratio: 1,14

Je confirme difoxxx84 : Moi également

difoxxx84 D[0]x ↑ 5.1 TB ↓ 1.35 TB Ratio: 3,79

Merci mais Hadopi reçu pour cette oeuvre !

SEED SEED AND SEED F*CK

bougnoul45 ↑ 10 GB ↓ 10.55 GB Ratio: 0,94

merci beaucoup

youcefthug0 ↑ 94.66 GB ↓ 91.34 GB Ratio: 1,03

merci bbbb

fikouz ↑ 1.59 TB ↓ 318.66 GB Ratio: 5,09

Comédie sympatoche, image/son parfaits. Merci

"Tout se chevauche, plus rien n'est respecté, un foutu bordel qui est le bienvenu!"

fourmilier Pfffffffffffffff

tres bonne qualité, une bonne soirée

milkacams ↑ 836.74 GB ↓ 820.92 GB Ratio: 1,01

merci beaucoup!!!!

milkacams ↑ 836.74 GB ↓ 820.92 GB Ratio: 1,01

merci beaucoup!!!!

1 - 20 | 21 - 40 | 41 - 59
 
Loading...