Torrent

10 Cloverfield Lane (2016) MULTi [1080p] BluRay x264-PopHD + BONUS URL Raccourcie



Multi (VFI-VO) - HD Light 1080p
+ BONUS




http://img.streetprez.fr/fr_FR/controleParental/tp.png]

http://img15.hostingpics.net/pics/209456InfosFilm1.png

Origine : U.S.A.
Réalisateur : Dan Trachtenberg
Acteurs : Mary Elizabeth Winstead, John Goodman, John Gallagher Jr., Mat Vairo, Maya Erskine
Genre : Science fiction, Thriller
Durée : 1h 43min
Date de sortie : 16 Mars 2016
Année de production : 2016
Titre original : 10 Cloverfield Lane
Critiques Spectateurs : http://img.streetprez.com/note/40.png 3.7
Critiques Presses : http://img.streetprez.com/note/40.png 3.6
IMDb : 7.4
Plus d'information sur AlloCiné ou IMDb :


http://i1314.photobucket.com/albums/t575/tonyka29/photoallocineacute_zpsa7882ed2.jpg http://i1314.photobucket.com/albums/t575/tonyka29/IMDbjpg_zps8eaa57a9.png





Une jeune femme se réveille dans une cave après un accident de voiture. Ne sachant pas comment elle a atterri dans cet endroit, elle pense tout d'abord avoir été kidnappée. Son gardien tente de la rassurer en lui disant qu'il lui a sauvé la vie après une attaque chimique d'envergure. En l'absence de certitude, elle décide de s'échapper...


BONUS


• Cloverfield too
• Bunker Mentality
• Spin-Off
• End of Story


Bande annonce :




Ce up peut paraître léger pour un 1080p mais les options d'encodage du x264 permettent d'obtenir une qualité qui se rapproche des versions lourdes, tout en préservant votre ratio !



             Film
                           • Format :      MKV (AVC H.264 @2 850 Kbps - [email protected])

                           • Audio :        Français (VFF) : AC3 5.1 @448 kbps
                                            Anglais        : AC3 5.1 @448 kbps

                           • Sous-titres : Français [forcés]
                                            Français [complets]
                                            Anglais  [complets]
                                            Espagnol [complets]
                                            Portugais [complets]


                           • Résolution : 1920x800          |    Format à l'écran :2.40

                           • Taille du fichier : 2.72 Go  




             Bonus
                          • Format :      MKV (AVC H.264 @2250 Kbps - [email protected])

                          • Audio :        Anglais    : AC3 2.0 @448 kbps
             
                          • Sous-titres : Français [Complets]
                                           Anglais  [Complets]
                                           Espagnol [Complets]
                                     
                          • Résolution :  1920x1080     |    Format à l'écran :16/9

                          • Taille des bonus : 684 Mo

                           
                          
                              Taille du post : 3,39 Go    |    Encodé parTonyka



popopoooooo, Abi, LotusFlower, Tonyka, itamma, Noex







Pour les BluRay FULL, REMUX ou HD régulier allez voir ICI

LIENS DE TÉLÉCHARGEMENT

Télécharger 10 Cloverfield Lane (2016) MULTi [1080p] BluRay x264-PopHD + BONUS URL Raccourcie gratuitement

Cliquez ici pour télécharger la version FRANCAISE
PUB



TÉLÉCHARGER 10 Cloverfield Lane (2016) MULTi [1080p] BluRay x264-PopHD + BONUS AVEC USENET (ANONYME&RAPIDE) 14 jours gratuits

PUB

↓↓↓ 10 Cloverfield Lane (2016) MULTi [1080p] BluRay x264-PopHD + BONUS ↓↓↓
 
Seeders 1798 Leechers 88 Téléchargements 39087
 
Télécharger Dire merci! Signaler
Voir la liste des membres qui vous remercient
↑↑↑ 10 Cloverfield Lane (2016) MULTi [1080p] BluRay x264-PopHD + BONUS ↑↑↑

Informations

Nom 10 Cloverfield Lane (2016) MULTi [1080p] BluRay x264-PopHD + BONUS
Torrent 10 Cloverfield Lane (2016) MULTi [1080p] BluRay x264-PopHD.torrent
Catégorie Film
Taille totale 3.39 GB
Info Hash bedc6847e48142585b5a1f0d6fdbf26f13750900
Uploadé par popopoooooo
Uploadé le 2016-06-13 22:00:35 (+00:00)
Visites 60158
évaluation 4.8/5 (453 votes)

Liste des Fichiers

Path Size
10 Cloverfield Lane (2016) MULTi [1080p] BluRay x264-PopHD/10 Cloverfield Lane (2016) MULTi [1080p] BluRay x264-PopHD.mkv 2.72 GB
10 Cloverfield Lane (2016) MULTi [1080p] BluRay x264-PopHD/Cloverfield too - Bunker Mentality - Spin-Off - End of Story -PopHD.mkv 684.04 MB

Voir le NFO

------------------------------------------------------------------------
--------------------     Team PopHD present     --------------------
------------------------------------------------------------------------

----------------------------- GENERAL -------------------------------


         10 Cloverfield Lane (2016) MULTi [1080p] BluRay x264-PopHD.mkv

Format                                   : Matroska
Format version                           : Version 4 / Version 2
File size                                : 2.72 GiB
Duration                                 : 1h 43mn
Overall bit rate                         : 3 758 Kbps
Movie name                               : 10 Cloverfield Lane (2016) PopHD
Encoded date                             : UTC 2016-06-07 05:49:53
Writing application                      : mkvmerge v8.2.0 ('World of Adventure') 64bit
Writing library                          : libebml v1.3.1 + libmatroska v1.4.2
Attachements                             : 10 cloverfield lane.jpg

Video
ID                                       : 1
Format                                   : AVC
Format/Info                              : Advanced Video Codec
Format profile                           : [email protected]
Format settings, CABAC                   : Yes
Format settings, ReFrames                : 5 frames
Codec ID                                 : V_MPEG4/ISO/AVC
Duration                                 : 1h 43mn
Bit rate                                 : 2 850 Kbps
Width                                    : 1 920 pixels
Height                                   : 800 pixels
Display aspect ratio                     : 2.40:1
Frame rate mode                          : Constant
Frame rate                               : 23.976 fps
Color space                              : YUV
Chroma subsampling                       : 4:2:0
Bit depth                                : 8 bits
Scan type                                : Progressive
Bits/(Pixel*Frame)                       : 0.077
Stream size                              : 2.02 GiB (74%)
Writing library                          : x264 core 142 r2389 956c8d8

Audio #1
ID                                       : 2
Format                                   : AC-3
Format/Info                              : Audio Coding 3
Mode extension                           : CM (complete main)
Format settings, Endianness              : Big
Codec ID                                 : A_AC3
Duration                                 : 1h 43mn
Bit rate mode                            : Constant
Bit rate                                 : 448 Kbps
Channel(s)                               : 6 channels
Channel positions                        : Front: L C R, Side: L R, LFE
Sampling rate                            : 48.0 KHz
Compression mode                         : Lossy
Stream size                              : 332 MiB (12%)
Title                                    : AC3-5.1-VFI
Language                                 : French
Default                                  : Yes
Forced                                   : No

Audio #2
ID                                       : 3
Format                                   : AC-3
Format/Info                              : Audio Coding 3
Mode extension                           : CM (complete main)
Format settings, Endianness              : Big
Codec ID                                 : A_AC3
Duration                                 : 1h 43mn
Bit rate mode                            : Constant
Bit rate                                 : 448 Kbps
Channel(s)                               : 6 channels
Channel positions                        : Front: L C R, Side: L R, LFE
Sampling rate                            : 48.0 KHz
Compression mode                         : Lossy
Stream size                              : 332 MiB (12%)
Title                                    : AC3-5.1-VO
Language                                 : English
Default                                  : No
Forced                                   : No

Text #1
ID                                       : 4
Format                                   : UTF-8
Codec ID                                 : S_TEXT/UTF8
Codec ID/Info                            : UTF-8 Plain Text
Title                                    : forced colored
Language                                 : French
Default                                  : Yes
Forced                                   : No

Text #2
ID                                       : 5
Format                                   : UTF-8
Codec ID                                 : S_TEXT/UTF8
Codec ID/Info                            : UTF-8 Plain Text
Title                                    : forced
Language                                 : French
Default                                  : No
Forced                                   : No

Text #3
ID                                       : 6
Format                                   : UTF-8
Codec ID                                 : S_TEXT/UTF8
Codec ID/Info                            : UTF-8 Plain Text
Title                                    : full
Language                                 : French
Default                                  : No
Forced                                   : No

Text #4
ID                                       : 7
Format                                   : UTF-8
Codec ID                                 : S_TEXT/UTF8
Codec ID/Info                            : UTF-8 Plain Text
Title                                    : full
Language                                 : English
Default                                  : No
Forced                                   : No

Text #5
ID                                       : 8
Format                                   : UTF-8
Codec ID                                 : S_TEXT/UTF8
Codec ID/Info                            : UTF-8 Plain Text
Title                                    : SDH
Language                                 : English
Default                                  : No
Forced                                   : No

Text #6
ID                                       : 9
Format                                   : PGS
Muxing mode                              : zlib
Codec ID                                 : S_HDMV/PGS
Codec ID/Info                            : Picture based subtitle format used on BDs/HD-DVDs
Title                                    : forced
Language                                 : Spanish
Default                                  : No
Forced                                   : No

Text #7
ID                                       : 10
Format                                   : PGS
Muxing mode                              : zlib
Codec ID                                 : S_HDMV/PGS
Codec ID/Info                            : Picture based subtitle format used on BDs/HD-DVDs
Title                                    : full
Language                                 : Spanish
Default                                  : No
Forced                                   : No

Text #8
ID                                       : 11
Format                                   : PGS
Muxing mode                              : zlib
Codec ID                                 : S_HDMV/PGS
Codec ID/Info                            : Picture based subtitle format used on BDs/HD-DVDs
Title                                    : forced
Language                                 : Portuguese
Default                                  : No
Forced                                   : No

Text #9
ID                                       : 12
Format                                   : PGS
Muxing mode                              : zlib
Codec ID                                 : S_HDMV/PGS
Codec ID/Info                            : Picture based subtitle format used on BDs/HD-DVDs
Title                                    : full
Language                                 : Portuguese
Default                                  : No
Forced                                   : No

Menu
00:00:00.000                             : :Chapter 1
00:05:55.813                             : :Chapter 2
00:14:52.641                             : :Chapter 3
00:19:18.240                             : :Chapter 4
00:24:12.200                             : :Chapter 5
00:32:22.023                             : :Chapter 6
00:42:59.451                             : :Chapter 7
00:47:47.865                             : :Chapter 8
00:53:37.214                             : :Chapter 9
00:57:00.750                             : :Chapter 10
01:03:10.953                             : :Chapter 11
01:11:20.317                             : :Chapter 12
01:15:49.545                             : :Chapter 13
01:24:21.389                             : :Chapter 14
01:28:19.335                             : :Chapter 15
01:37:31.720                             : :Chapter 16

------------------------------------------------------------------------

       Cloverfield too - Bunker Mentality - Spin-Off - End of Story -PopHD.mkv

Format                                   : Matroska
Format version                           : Version 4 / Version 2
File size                                : 684 MiB
Duration                                 : 34mn 42s
Overall bit rate                         : 2 755 Kbps
Movie name                               : Cloverfield too - Bunker Mentality - Spin-Off - End of Story -PopHD
Encoded date                             : UTC 2016-06-11 12:09:12
Writing application                      : mkvmerge v8.2.0 ('World of Adventure') 64bit
Writing library                          : libebml v1.3.1 + libmatroska v1.4.2

Video
ID                                       : 1
Format                                   : AVC
Format/Info                              : Advanced Video Codec
Format profile                           : [email protected]
Format settings, CABAC                   : Yes
Format settings, ReFrames                : 4 frames
Codec ID                                 : V_MPEG4/ISO/AVC
Duration                                 : 34mn 42s
Bit rate                                 : 2 250 Kbps
Width                                    : 1 920 pixels
Height                                   : 1 066 pixels
Display aspect ratio                     : 16:9
Frame rate mode                          : Constant
Frame rate                               : 23.976 fps
Color space                              : YUV
Chroma subsampling                       : 4:2:0
Bit depth                                : 8 bits
Scan type                                : Progressive
Bits/(Pixel*Frame)                       : 0.046
Stream size                              : 559 MiB (82%)
Title                                    : Cloverfield too - Bunker Mentality - Spin-Off - End of Story -PopHD
Writing library                          : x264 core 142 r2389 956c8d8

Audio
ID                                       : 2
Format                                   : AC-3
Format/Info                              : Audio Coding 3
Mode extension                           : CM (complete main)
Format settings, Endianness              : Big
Codec ID                                 : A_AC3
Duration                                 : 34mn 42s
Bit rate mode                            : Constant
Bit rate                                 : 448 Kbps
Channel(s)                               : 2 channels
Channel positions                        : Front: L R
Sampling rate                            : 48.0 KHz
Compression mode                         : Lossy
Stream size                              : 111 MiB (16%)
Title                                    : AC3-2.0-VO
Language                                 : English
Default                                  : Yes
Forced                                   : No

Text #1
ID                                       : 3
Format                                   : UTF-8
Codec ID                                 : S_TEXT/UTF8
Codec ID/Info                            : UTF-8 Plain Text
Title                                    : full
Language                                 : French
Default                                  : Yes
Forced                                   : No

Text #2
ID                                       : 4
Format                                   : UTF-8
Codec ID                                 : S_TEXT/UTF8
Codec ID/Info                            : UTF-8 Plain Text
Title                                    : full
Language                                 : English
Default                                  : No
Forced                                   : No

Text #3
ID                                       : 5
Format                                   : PGS
Muxing mode                              : zlib
Codec ID                                 : S_HDMV/PGS
Codec ID/Info                            : Picture based subtitle format used on BDs/HD-DVDs
Title                                    : full (pgs)
Language                                 : French
Default                                  : No
Forced                                   : No

Text #4
ID                                       : 6
Format                                   : PGS
Muxing mode                              : zlib
Codec ID                                 : S_HDMV/PGS
Codec ID/Info                            : Picture based subtitle format used on BDs/HD-DVDs
Title                                    : full (pgs)
Language                                 : English
Default                                  : No
Forced                                   : No

Text #5
ID                                       : 7
Format                                   : PGS
Muxing mode                              : zlib
Codec ID                                 : S_HDMV/PGS
Codec ID/Info                            : Picture based subtitle format used on BDs/HD-DVDs
Title                                    : full (pgs)
Language                                 : Spanish
Default                                  : No
Forced                                   : No

Menu
00:00:00.000                             : :Chapter 1
00:09:07.421                             : :Chapter 2
00:12:56.233                             : :Chapter 3
00:14:41.172                             : :Chapter 4
00:18:33.696                             : :Chapter 5
00:24:40.771                             : :Chapter 6
00:31:22.881                             : :Chapter 7


------------------------------- SOURCES --------------------------------

10 Cloverfield Lane 2016 COMPLETE BLURAY-BAKED


Encode par Tonyka                                         Enjoy !!     

Ajouter un commentaire

ottopartage ↑ 417.04 GB ↓ 205.69 GB Ratio: 2,02

Merci beaucoup

Titom97269 ↑ 29.95 TB ↓ 7.42 TB Ratio: 4,03

Le film est très mauvais, à mon sens, mais la qualité est au rendez-vous.

Pudd ↑ 270.78 GB ↓ 106.21 GB Ratio: 2,54

Merci pour ce partage

Thundera

Et comme Mary Elizabeth Winstead est belle!

tordjemann ↑ 11.79 GB ↓ 14.18 GB Ratio: 0,83

film attirant merci pour ce partage

salamlam ↑ 22.26 GB ↓ 18.66 GB Ratio: 1,19

Thanks For the Torrent

joshclub ↑ 4.9 TB ↓ 1.17 TB Ratio: 4,20

Excellente qualité audio-vidéo.
Merci beaucoup pour le partage

choupi72700 ↑ 20.31 GB ↓ 11.02 GB Ratio: 1,84

Merci, ça à l'air super tentant../)

Daywatcher ↑ 6.38 TB ↓ 2.08 TB Ratio: 3,07

Merci.
Ce film est juste un remake de "Metal Hurlant Chronicles " Saison 1 Episode 2 ( Protège-moi (Shelter Me))
rapide résumé :
Jennifer reprend connaissance dans un abri antiatomique. Mr. Davis, son mystérieux voisin, est à ses côtés à son réveil. Il lui apprend qu’ils sont les seuls survivants de l’holocauste nucléaire qui a anéanti le monde. Les radiations tueraient quiconque tenterait de rejoindre l’extérieur.

sniper38130 ↑ 627.89 GB ↓ 304.97 GB Ratio: 2,05

merci super taff

rzrd Timidou ↑ 365.64 GB ↓ 82.87 GB Ratio: 4,41

merci pour le lien, je teste je ne connais pas !

trop cool pour la qualité

Ttaratata83 ↑ 977.5 GB ↓ 271.06 GB Ratio: 3,60

Merci beaucoup pour le partage

dayto10 ↑ 560.99 GB ↓ 267.53 GB Ratio: 2,09

Merci pour le partage

Arcange ↑ 168.22 GB ↓ 101.81 GB Ratio: 1,65

Merci bcp pour le partage

bmw318tdi ↑ 2.17 TB ↓ 575.45 GB Ratio: 3,86

Merci bcp pour le partage

bmw318tdi ↑ 2.17 TB ↓ 575.45 GB Ratio: 3,86

Merci bcp pour le partage

lala1416 ↑ 5 GB ↓ 0 B Ratio: Inf.

bonjour jai uploader le film mais jai pas les paroles quelquun peut maider?

Killianquiros ↑ 1.26 TB ↓ 1.24 TB Ratio: 1,01

Très bon film merci infiniment

absolumuse007 ↑ 16.48 TB ↓ 6.09 TB Ratio: 2,70

J'ai pris se film il y à quelques mois déjà car le résumé m'avait l'air cool ...

Au final tout ce que j'ai dis à la fin de tout ça c'est ... WTFFFFF mais c'est quoi cette m.... ^^


A voir une fois pour se faire un avis mais je trouve que c'est un peu space

nervous ↑ 848.84 GB ↓ 692.14 GB Ratio: 1,22

J'ai bien apprécié également... C'est un peu du n'importe quoi, surtout sur la fin, mais ça change de ce que l'on est habitué à voir.

Sinon pas de problèmes en VO avec sous-titres EN!

Merci pour l'upload

 
Loading...